<?xml version="1.0" standalone="no"?>
<!DOCTYPE svg PUBLIC "-//W3C//DTD SVG 1.1//EN" "http://www.w3.org/Graphics/SVG/1.1/DTD/svg11.dtd" >
<svg xmlns="http://www.w3.org/2000/svg">
<metadata>
This is a custom SVG font generated by IcoMoon.
<iconset grid="20" href="http://bonfirelab.com" name="BonToolkit Social" id="bontoolkit-social"></iconset><author href="http://bonfirelab.com" name="Hermanto Lim"></author><license name="MIT"></license>
</metadata>
<defs>
<font id="bontoolkit-social" horiz-adv-x="640" >
<font-face units-per-em="640" ascent="608" descent="-32" />
<missing-glyph horiz-adv-x="640" />
<glyph class="hidden" unicode="&#xf000;" d="M0,608L 640 -32L0 -32 z" horiz-adv-x="0" />
<glyph unicode="&#xe000;" d="M 421.76,246.080c-22.976,0-41.6-25.792-41.6-57.568c0-31.808, 18.624-57.6, 41.6-57.6s 41.6,25.792, 41.6,57.6
	C 463.328,220.32, 444.704,246.080, 421.76,246.080z M 566.592,395.968c 4.736,11.68, 4.96,78.080-20.288,141.632c0,0-57.984-6.336-145.664-66.528
	c-18.4,5.088-49.536,7.616-80.64,7.616c-31.136,0-62.24-2.56-80.672-7.616C 151.68,531.264, 93.728,537.6, 93.728,537.6
	C 68.48,474.048, 68.672,407.648, 73.44,395.968C 43.744,363.712, 25.6,324.992, 25.6,272.096c0-229.952, 190.784-233.632, 238.944-233.632
	c 10.912,0, 32.608-0.032, 55.488-0.064c 22.88,0.032, 44.576,0.064, 55.424,0.064c 48.192,0, 238.944,3.68, 238.944,233.632
	C 614.4,324.992, 596.288,363.712, 566.592,395.968z M 320.896,66.72L 319.136,66.72 c-120.704,0-214.72,14.4-214.72,131.712c0,28.096, 9.952,54.176, 33.472,75.808
	c 39.328,36.064, 105.792,16.96, 181.248,16.96c 0.288,0, 0.608,0, 0.896,0.032c 0.32,0, 0.608-0.032, 0.864-0.032c 75.456,0, 141.952,19.104, 181.248-16.96
	c 23.52-21.632, 33.44-47.712, 33.44-75.808C 535.584,81.12, 441.632,66.72, 320.896,66.72z M 218.272,246.080c-22.976,0-41.6-25.792-41.6-57.568
	c0-31.808, 18.624-57.6, 41.6-57.6s 41.6,25.792, 41.6,57.6C 259.872,220.32, 241.248,246.080, 218.272,246.080z"  />
<glyph unicode="&#xe001;" d="M 157.536,160C 88.192,160, 32,217.248, 32,288s 56.192,128, 125.536,128c 69.344,0, 125.568-57.28, 125.568-128S 226.88,160, 157.536,160z M 482.432,160
	c-69.376,0-125.632,57.248-125.632,128s 56.256,128, 125.632,128C 551.744,416, 608,358.72, 608,288S 551.744,160, 482.432,160z"  />
<glyph unicode="&#xe002;" d="M 605.12,421.088c-32.192-184.704-212-341.12-266.080-376.832c-54.112-35.712-103.424,14.304-121.344,52.16
	C 197.216,139.52, 135.808,373.44, 119.712,392.768C 103.648,412.192, 55.392,373.44, 55.392,373.44L 32,404.672c0,0, 97.984,119.2, 172.544,134.080
	c 79.040,15.776, 78.912-123.648, 97.92-201.056c 18.4-74.912, 30.752-117.792, 46.784-117.792c 16.096,0, 46.784,41.792, 80.416,105.824
	c 33.696,64.096-1.44,120.672-67.264,80.448C 388.704,567.072, 637.312,605.76, 605.12,421.088z"  />
<glyph unicode="&#xe003;" d="M 614.4,470.624c-21.696-9.632-44.96-16.096-69.408-19.040c 24.96,14.944, 44.128,38.624, 53.12,66.816c-23.328-13.824-49.184-23.904-76.672-29.312
	c-22.048,23.488-53.44,38.144-88.192,38.144c-66.72,0-120.8-54.080-120.8-120.768c0-9.472, 1.056-18.688, 3.136-27.52
	c-100.384,5.024-189.408,53.12-248.96,126.208C 56.192,487.328, 50.208,466.56, 50.208,444.416c0-41.92, 21.344-78.88, 53.76-100.544
	c-19.808,0.64-38.432,6.048-54.72,15.104c0-0.512,0-0.992,0-1.504c0-58.528, 41.664-107.328, 96.896-118.464c-10.112-2.752-20.8-4.224-31.84-4.224
	c-7.776,0-15.328,0.736-22.72,2.144c 15.36-48, 60-82.912, 112.832-83.872c-41.344-32.416-93.408-51.712-150.016-51.712
	c-9.76,0-19.36,0.576-28.8,1.696c 53.44-34.272, 116.928-54.272, 185.184-54.272c 222.176,0, 343.68,184.064, 343.68,343.712
	c0,5.216-0.096,10.432-0.352,15.616C 577.728,425.12, 598.176,446.4, 614.4,470.624z"  />
<glyph unicode="&#xe004;" d="M 480,475.872l-91.392,0 c-10.816,0-22.88-14.208-22.88-33.248L 365.728,376.64 L 480,376.64 l0-94.080 l-114.272,0 L 365.728,0 L 257.824,0 l0,282.528 L 160,282.528 L 160,376.64 l 97.824,0 L 257.824,432 
	c0,79.392, 55.104,144, 130.752,144L 480,576 L 480,475.872 z"  />
<glyph unicode="&#xe005;" d="M 63.68,429.152c0-47.776, 15.968-82.304, 47.424-102.56c 25.76-16.608, 55.68-19.104, 71.232-19.104c 3.776,0, 6.784,0.16, 8.896,0.288
	c0,0-4.928-32.096, 18.88-63.872l-1.088,0.032c-41.248,0-175.808-8.64-175.808-119.264c0-112.544, 123.584-118.24, 148.352-118.24
	c 1.952,0, 3.072,0.032, 3.072,0.032c 0.288,0, 2.048-0.064, 5.056-0.064c 15.904,0, 57.024,1.984, 95.232,20.576
	c 49.536,24.032, 74.688,65.888, 74.688,124.32c0,56.48-38.272,90.080-66.24,114.656c-17.056,14.976-31.808,27.904-31.808,40.48
	c0,12.8, 10.752,22.432, 24.384,34.624c 22.016,19.712, 42.816,47.776, 42.816,100.832c0,46.656-6.048,77.952-43.328,97.792
	c 3.904,1.984, 17.632,3.424, 24.448,4.384c 20.192,2.752, 49.728,5.888, 49.728,22.368L 359.616,569.6 L 212.48,569.6 C 211.008,569.568, 63.68,564.096, 63.68,429.152z
	 M 301.216,140.736c 2.816-44.992-35.68-78.208-93.472-82.4c-58.688-4.32-107.040,22.112-109.856,67.104c-1.344,21.6, 8.128,42.752, 26.72,59.616
	c 18.88,17.056, 44.736,27.584, 72.928,29.696c 3.328,0.192, 6.624,0.352, 9.92,0.352C 261.76,215.104, 298.56,183.168, 301.216,140.736z M 262.784,459.968
	c 14.432-50.784-7.36-103.872-42.080-113.664C 216.704,345.184, 212.576,344.608, 208.416,344.608c-31.84,0-63.36,32.192-75.040,76.544
	C 126.848,446.080, 127.36,467.84, 134.848,488.8C 142.208,509.376, 155.424,523.328, 172.064,528c 4,1.152, 8.16,1.696, 12.32,1.696
	C 222.784,529.696, 247.488,513.76, 262.784,459.968z M 510.752,349.376l0,96 l-60.8,0 l0-96 l-96,0 l0-60.8 l 96,0 l0-96 l 60.8,0 l0,96 l 96,0 l0,60.8 L 510.752,349.376 z"  />
<glyph unicode="&#xe006;" d="M 275.712,184.704C 258.912,96.608, 238.4,12.128, 177.6-32c-18.752,133.184, 27.552,233.184, 49.056,339.36
	c-36.672,61.76, 4.416,185.984, 81.792,155.36c 95.2-37.664-82.432-229.536, 36.8-253.504c 124.512-25.024, 175.328,216, 98.144,294.368
	C 331.84,616.8, 118.656,506.208, 144.896,344.192c 6.368-39.616, 47.296-51.648, 16.352-106.304c-71.392,15.808-92.704,72.128-89.952,147.2
	C 75.712,507.936, 181.696,593.952, 288,605.856c 134.464,15.072, 260.64-49.344, 278.016-175.808c 19.616-142.72-60.64-297.312-204.448-286.176
	C 322.624,146.848, 306.272,166.144, 275.712,184.704z"  />
<glyph unicode="&#xe007;" d="M 499.2,25.728c-24.832-11.84-47.36-20.192-67.488-24.96c-20.16-4.736-41.984-7.168-65.376-7.168c-26.592,0-50.080,3.424-70.56,10.208
	c-20.416,6.816-37.824,16.512-52.288,29.024c-14.432,12.64-24.448,25.984-30.016,40.16c-5.6,14.176-8.384,34.72-8.384,61.632L 205.088,341.152 L 140.8,341.152 L 140.8,424.48 
	C 163.648,432, 183.264,442.72, 199.52,456.768c 16.32,14.016, 29.376,30.88, 39.264,50.56C 248.64,527.008, 255.392,552, 259.136,582.4l 82.72,0 l0-148.832 l 138.080,0 l0-92.416 
	l-138.080,0 l0-151.008 c0-34.112, 1.792-56.032, 5.408-65.76c 3.52-9.664, 10.176-17.408, 19.872-23.2c 12.928-7.808, 27.616-11.712, 44.192-11.712
	c 29.472,0, 58.752,9.696, 87.872,29.056L 499.2,25.728 z"  />
<glyph unicode="&#xe008;" d="M 162.432,510.4c0-34.016-25.12-61.568-66.432-61.568c-38.88,0-64,27.552-64,61.568c0,34.816, 25.952,61.568, 65.632,61.568
		S 161.632,545.216, 162.432,510.4z M 35.264,4.032L 35.264,400.192 L 158.4,400.192 l0-396.16 L 35.264,4.032 zM 232.096,273.824c0,49.408-1.632,90.72-3.264,126.368l 106.944,0 l 5.696-55.104l 2.432,0 c 16.192,25.952, 55.904,64, 122.336,64
		c 80.992,0, 141.76-54.272, 141.76-170.944l0-234.144 l-123.136,0 l0,219.552 c0,51.040-17.856,85.888-62.4,85.888c-34.016,0-54.24-23.488-63.168-46.176
		c-3.264-8.096-4.064-19.424-4.064-30.784l0-228.48 L 232.096,4 L 232.096,273.824 z"  />
<glyph unicode="&#xe009;" d="M 306.080,370.528C 262.624,447.808, 216.16,510.784, 212.736,515.392C 142.624,482.272, 90.272,417.696, 73.984,339.84C 80.576,339.712, 185.344,338.464, 306.080,370.528
	z M 337.408,286.080c 3.328,1.056, 6.592,2.016, 9.952,2.976c-6.304,14.304-13.216,28.608-20.416,42.72c-129.472-38.72-253.728-35.936-258.144-35.808
	C 68.704,293.312, 68.608,290.688, 68.608,288c0-64.672, 24.448-123.552, 64.512-168.096c-0.064,0.064-0.192,0.224-0.192,0.224
	S 201.76,242.176, 337.408,286.080z M 165.472,89.824l 0.064,0.096c-1.888,1.472-3.872,2.784-5.696,4.32
	C 163.168,91.552, 165.472,89.824, 165.472,89.824z M 259.776,532.096C 259.552,532.032, 259.328,532, 259.136,531.936C 259.488,532.032, 259.744,532.064, 259.776,532.096
	L 259.776,532.096z M 486.048,476.672c-44.288,39.008-102.368,62.72-166.016,62.72c-20.448,0-40.256-2.496-59.264-7.104
	c 3.808-5.056, 51.008-67.776, 94.016-146.656C 449.568,421.184, 485.408,475.648, 486.048,476.672z M 320.032-6.4C 157.408-6.4, 25.6,125.408, 25.6,288
	s 131.808,294.4, 294.432,294.4c 162.592,0, 294.368-131.808, 294.368-294.4S 482.624-6.4, 320.032-6.4z M 362.784,246.88c-147.552-51.424-196.288-154.848-197.248-156.96
	c 42.624-33.312, 96.192-53.312, 154.496-53.312c 34.816,0, 67.968,7.072, 98.112,19.872c-3.712,22.048-18.336,99.072-53.696,190.976
	C 363.904,247.232, 363.328,247.072, 362.784,246.88z M 374.080,348.192c 5.888-12, 11.488-24.16, 16.704-36.48c 1.888-4.352, 3.648-8.672, 5.44-12.992
	c 86.848,10.912, 172.32-7.616, 175.104-8.224c-0.576,59.648-21.888,114.368-57.152,157.184C 513.664,446.944, 473.344,388.704, 374.080,348.192z M 411.552,259.040
	c 33.024-90.72, 46.4-164.544, 48.928-179.584c 56.48,38.112, 96.576,98.56, 107.744,168.672C 563.264,249.76, 492.832,272.064, 411.552,259.040z"  />
<glyph unicode="&#xe00a;" d="M 353.664,350.080l 43.648-21.088l 65.888,21.088L 463.2,388.32 C 463.2,467.104, 398.976,531.2, 320,531.2c-78.944,0-143.168-64.096-143.168-142.88l0-200.64 
	c0-18.496-15.104-33.568-33.632-33.568s-33.632,15.072-33.632,33.568L 109.568,271.68 L0,271.68 l0-84 C0,108.896, 64.224,44.8, 143.2,44.8s 143.2,64.096, 143.2,142.88
	l0,200.64 c0,18.496, 15.104,33.568, 33.632,33.568c 18.56,0, 33.664-15.072, 33.664-33.568L 353.696,350.080 z M 530.464,271.68l0-84 c0-18.496-15.104-33.568-33.632-33.568
	c-18.56,0-33.664,15.072-33.664,33.568l0,85.696 l-65.888-21.088l-43.648,21.088l0-85.696 c0-78.784, 64.224-142.88, 143.2-142.88
	c 78.944,0, 143.168,64.096, 143.168,142.88L 640,271.68 L 530.464,271.68 z"  />
<glyph unicode="&#xe00b;" d="M 251.968,205.536c-13.408-12.032-39.168-36.16-82.048-36.16c-50.592,0-99.328,44.352-99.328,115.296c0,90.912, 58.24,120.224, 102.976,120.224
		c 64.512,0, 78.656-38.912, 96.224-92.864l 23.456-73.92c 23.424-71.648, 67.424-129.28, 194.24-129.28c 90.944,0, 152.512,28.064, 152.512,101.952
		c0,59.872-33.76,90.912-96.768,105.696L 496.32,326.784c-32.256,7.392-41.792,20.672-41.792,42.88c0,25.12, 19.776,39.904, 52.032,39.904
		c 35.2,0, 54.24-13.312, 57.184-45.088l 73.312,8.864C 631.2,439.84, 585.76,467.2, 510.976,467.2c-65.984,0-130.464-25.12-130.464-105.664
		c0-50.24, 24.192-82.016, 84.992-96.8l 49.888-11.808c 37.376-8.864, 49.856-24.416, 49.856-45.856c0-27.328-26.4-38.4-76.256-38.4
		c-74.016,0-111.232,39.168-128.8,93.088l-24.224,73.92C 305.184,431.712, 268.832,467.2, 171.328,467.2C 84.416,467.2,0,398.464,0,281.728
		C0,169.376, 81.024,108.8, 166.208,108.8c 61.6,0, 92.864,21.632, 108.16,32.736L 251.968,205.536z"  />
<glyph unicode="&#xe00c;" d="M 509.952,320.768c 75.232,22.24, 119.328,101.952, 87.648,103.552c-81.312,4.128-150.848,43.52-197.696,72.96
	c-4.96,3.264-10.016,6.368-15.232,9.28l0-183.2 c0-60.576-36.64-108.832-78.176-128.896c-60.32-29.12-127.52-10.848-150.112,40.832
	c-22.592,51.68, 8,117.184, 68.32,146.272c 33.376,16.096, 68.8,17.664, 97.664,7.136L 322.368,530.816 C 304.128,535.168, 285.152,537.6, 265.6,537.6
	c-136.096,0-246.432-111.744-246.432-249.6c0-137.856, 110.336-249.6, 246.432-249.6c 136.128,0, 246.432,111.744, 246.432,249.6
	C 512.032,299.104, 511.328,310.048, 509.952,320.768z"  />
<glyph unicode="&#xe00d;" d="M 320,569.6C 164.48,569.6, 38.4,443.52, 38.4,288c0-71.104, 26.336-136.032, 69.824-185.568c 44.032,44.032, 104.384,68.768, 173.664,66.528
	c 88.352-2.848, 158.080-44.704, 198.080-112.736C 553.44,107.040, 601.6,191.872, 601.6,288C 601.6,443.52, 475.488,569.6, 320,569.6z M 457.696,187.616
	c-4.96-8.224-15.584-10.752-23.744-5.792c-65.216,39.84-147.264,48.832-243.904,26.784c-9.28-2.144-18.592,3.68-20.672,13.024
	c-2.144,9.28, 3.648,18.56, 12.992,20.672c 105.728,24.16, 196.448,13.728, 269.6-30.912C 460.096,206.4, 462.688,195.776, 457.696,187.616z
	 M 491.616,267.488c-6.24-10.176-19.552-13.344-29.728-7.072C 387.328,306.24, 273.536,319.52, 185.28,292.736C 173.824,289.28, 161.728,295.744, 158.272,307.136
	C 154.816,318.592, 161.28,330.688, 172.672,334.144c 100.832,30.624, 226.176,15.808, 311.872-36.864C 494.72,290.976, 497.952,277.728, 491.616,267.488z M 494.56,350.24
	C 405.12,403.424, 257.504,408.256, 172.096,382.368C 158.4,378.176, 143.904,385.952, 139.68,399.648C 135.552,413.376, 143.296,427.904, 157.024,432.032
	c 98.080,29.792, 261.056,24.032, 364.032-37.12c 12.352-7.328, 16.416-23.264, 9.088-35.584C 522.816,347.008, 506.944,342.976, 494.56,350.24z M 280.064,84.768
	c-39.616,1.28-72.608-14.176-96.672-43.072C 223.84,19.232, 270.4,6.4, 320,6.4c 23.904,0, 47.136,2.976, 69.28,8.608
	C 368.032,58.592, 331.008,83.136, 280.064,84.768z"  />
<glyph unicode="&#xe00e;" d="M 320,595.2c-169.664,0-307.2-137.536-307.2-307.2c0-77.568, 28.736-148.416, 76.16-202.432c 48.064,48.064, 113.888,75.040, 189.44,72.608
	c 96.384-3.136, 172.48-48.768, 216.096-123.008C 574.656,90.592, 627.2,183.136, 627.2,288C 627.2,457.664, 489.664,595.2, 320,595.2z M 470.176,178.496
	c-5.408-8.96-16.992-11.712-25.92-6.304c-71.168,43.456-160.64,53.28-266.048,29.216c-10.112-2.336-20.288,4-22.56,14.208
	c-2.336,10.080, 3.968,20.256, 14.144,22.56c 115.36,26.368, 214.304,14.976, 294.112-33.728C 472.8,199.008, 475.648,187.392, 470.176,178.496z
	 M 507.264,265.632c-6.816-11.136-21.376-14.592-32.448-7.744c-81.408,50.016-205.504,64.512-301.792,35.296c-12.512-3.776-25.696,3.296-29.44,15.712
	c-3.776,12.512, 3.264,25.696, 15.712,29.44c 109.984,33.44, 246.72,17.248, 340.224-40.192C 510.624,291.232, 514.112,276.768, 507.264,265.632z
	 M 510.432,355.904C 412.832,413.92, 251.84,419.2, 158.656,390.944C 143.68,386.368, 127.872,394.816, 123.328,409.792C 118.816,424.768, 127.264,440.64, 142.176,445.12
	c 107.008,32.48, 284.8,26.208, 397.152-40.512c 13.472-8, 17.92-25.376, 9.952-38.848C 541.248,352.352, 523.904,347.936, 510.432,355.904z M 276.448,66.304
	c-43.232,1.376-79.2-15.456-105.472-46.976C 215.104-5.216, 265.92-19.2, 320-19.2c 26.080,0, 51.392,3.264, 75.584,9.376
	C 372.416,37.76, 332,64.512, 276.448,66.304z"  />
<glyph unicode="&#xe00f;" d="M 544.16,191.36c-24.928,17.568-56.032,16.32-73.728-8.8s-141.376-180.256-344-115.84c 7.616-6.656, 15.68-12.992, 24.128-18.944
	c 132.928-93.6, 316.544-61.728, 410.176,71.232C 578.4,144.128, 569.056,173.824, 544.16,191.36z M 153.12,211.2c-12.928,27.872-85.408,212.576, 71.68,355.84
	c-9.6-3.296-19.072-7.072-28.448-11.424C 48.8,487.296-15.392,312.32, 52.928,164.768c 12.896-27.904, 43.296-34.688, 70.944-21.888
	C 151.52,155.712, 166.016,183.296, 153.12,211.2z M 346.432,581.696c-30.592,2.752-51.648-20.16-54.4-50.528c-2.72-30.368, 13.92-56.672, 44.512-59.424
	c 30.624-2.752, 226.784-32.32, 272.32-240.032c 1.984,9.952, 3.392,20.064, 4.352,30.368C 627.776,424, 508.352,567.104, 346.432,581.696z M 220.512,271.072
	c-8.416-19.872-9.792-38.816-3.008-42.336c 4.672-2.432, 11.968,3.136, 18.816,13.312c 2.72-11.136, 9.44-21.152, 19.040-29.216
	c-10.048-3.712-16.64-9.792-16.64-16.672c0-11.296, 17.792-20.448, 39.712-20.448c 19.776,0, 36.16,7.424, 39.2,17.184c 0.8,0, 3.936,0, 4.704,0
	c 3.072-9.76, 19.424-17.184, 39.232-17.184c 21.952,0, 39.712,9.152, 39.712,20.448c0,6.88-6.56,12.928-16.64,16.672
	c 9.568,8.064, 16.32,18.080, 19.008,29.216c 6.88-10.176, 14.144-15.744, 18.848-13.312c 6.784,3.52, 5.44,22.464-3.040,42.336
	c-6.624,15.552-15.616,27.072-22.464,29.632c 0.096,0.96, 0.16,1.984, 0.16,3.008c0,6.016-1.696,11.584-4.576,16.128
	c 0.064,0.352, 0.064,0.704, 0.064,1.056c0,2.784-0.672,5.376-1.792,7.616C 389.12,369.024, 362.72,401.248, 320,401.248S 250.848,369.024, 249.12,328.512
	C 248,326.24, 247.328,323.648, 247.328,320.864c0-0.352,0-0.704, 0.032-1.056C 244.544,315.296, 242.848,309.728, 242.848,303.68
	c0-1.024, 0.064-2.016, 0.128-3.008C 236.16,298.112, 227.136,286.624, 220.512,271.072z"  />
<glyph unicode="&#xe010;" d="M 486.4,288c0-91.904-74.528-166.4-166.4-166.4c-91.904,0-166.4,74.496-166.4,166.4c0,10.944, 1.088,21.632, 3.136,32L 44.8,320 l0-221.184 
	c0-47.488, 38.464-86.016, 86.016-86.016l 378.368,0 c 47.488,0, 86.016,38.496, 86.016,86.016L 595.2,320 l-111.904,0 C 485.312,309.632, 486.4,298.944, 486.4,288z M 509.184,563.2
	L 130.816,563.2 C 83.296,563.2, 44.8,524.672, 44.8,477.184L 44.8,384 l 139.328,0 C 214.24,426.56, 263.872,454.4, 320,454.4s 105.76-27.84, 135.872-70.4L 595.2,384 L 595.2,477.184 
	C 595.2,524.672, 556.672,563.2, 509.184,563.2z M 551.264,456.96c0-8.48-6.912-15.36-15.36-15.36l-46.048,0 c-8.448,0-15.36,6.912-15.36,15.36L 474.496,503.040 
	c0,8.48, 6.944,15.36, 15.36,15.36l 46.048,0 c 8.48,0, 15.36-6.912, 15.36-15.36L 551.264,456.96 z M 422.4,288c0,56.576-45.856,102.4-102.4,102.4S 217.6,344.576, 217.6,288
	s 45.856-102.4, 102.4-102.4S 422.4,231.424, 422.4,288z"  />
<glyph unicode="&#xe011;" d="M 195.488,579.136L 12.8,465.344l 125.152-104.928L 320,478.656L 195.488,579.136z M 430.464,96.192c-3.264,0-6.496,1.12-9.12,3.328L 320,183.552
	l-101.344-84.064c-2.624-2.176-5.888-3.328-9.12-3.328c-2.72,0-5.44,0.736-7.808,2.304l-75.072,49.12l0-28.992 L 320-3.136l 193.344,121.76
	l0,28.992 l-75.072-49.12C 435.904,96.928, 433.184,96.192, 430.464,96.192z M 627.2,465.344l-182.688,113.792L 320,478.656l 182.016-118.208L 627.2,465.344z
	 M 320,246.688l 112.864-93.696l 180.544,118.016l-111.36,89.408L 320,246.688z M 207.136,152.992L 320,246.688L 137.984,360.448l-111.36-89.44L 207.136,152.992z"  />
<glyph unicode="&#xe012;" d="M 554.848,470.144c0,36.8-55.424,40.896-55.424,40.896l-130.208,8.192c0,0-2.784,35.456-29.12,47.744
		c-26.304,12.256-55.232,8.544-76,8.32S 238.368,548.544, 238.368,523.52s 0.48-53.824, 0.48-72c0-32.512-14.304-46.368-50.112-46.368L 114.912,405.152 
		C 94.272,406.496, 78.176,403.104, 78.176,386.4c0-16.672, 24.32-159.104, 57.664-191.968c 19.36-19.072, 137.728-32.448, 162.656-32.448s 16.64,73.632, 23.552,73.632
		s 14.56-41.6, 53.824-51.328c 39.264-9.792, 91.68-7.968, 94.464-35.904c 3.616-36.864, 6.912-84.576-17.344-87.968l-54.88-2.176
		c-37.632,2.72-27.552,43.808-10.944,43.808s 24.928,0.672, 24.928,0.672l 2.080,44.992c0,0-86.176,10.176-89.856-47.968
		c-3.328-53.12, 5.792-78.176, 12.48-83.616C 343.52,10.624, 355.104,0, 460.64,0C 609.344,0, 554.848,433.376, 554.848,470.144z M 494.080,277.728
		C 488.256,271.52, 467.136,288, 446.976,288c-20.192,0-41.984-10.688-47.104-3.68c-5.088,7.040, 4.704,63.744, 42.72,63.744
		S 499.936,283.968, 494.080,277.728zM 185.696,474.688c0,7.264, 1.888,95.488, 1.888,95.488L 75.392,460.128c0,0, 77.504,0, 92.704,0C 183.36,460.128, 185.696,467.392, 185.696,474.688z"  />
<glyph unicode="&#xe013;" d="M 179.168,334.656c0,52.384, 13.888,85.696, 60.448,93.184c 16.256,3.2, 50.112,2.048, 71.648,2.048l0-80 c0-0.704, 0.096-2.016, 0.288-2.688
	C 312.416,344, 315.328,341.6, 318.816,341.6c 1.984,0, 3.808,1.024, 5.728,2.88l 199.52,199.488L 390.112,544L 241.568,544 C 124,544, 64,476.288, 64,349.888l0-265.216 
	l 115.168,115.264L 179.168,334.656 z M 460.864,376.032l0-134.688 c0-52.384-13.92-85.728-60.48-93.184c-16.256-3.2-50.080-2.048-71.616-2.048l0,80 
	c0,0.704-0.128,2.016-0.288,2.688c-0.896,3.232-3.84,5.6-7.328,5.632c-1.984,0-3.776-1.024-5.728-2.912l-199.52-199.456L 249.888,32
	l 148.576,0 C 516,32, 576,99.68, 576,226.112L 576,491.328 L 460.864,376.032z"  />
<glyph unicode="&#xe014;" d="M 597.472,222.784c 4.256,19.968, 6.496,40.704, 6.496,62.016c0,159.552-125.728,288.928-280.832,288.928c-16.352,0-32.416-1.472-48-4.224
	C 249.984,585.76, 220.32,595.2, 188.448,595.2C 98.528,595.2, 25.6,520.16, 25.6,427.616c0-30.912, 8.192-59.872, 22.4-84.736
	c-3.712-18.752-5.696-38.176-5.696-58.080c0-159.552, 125.76-288.928, 280.832-288.928c 17.568,0, 34.784,1.664, 51.424,4.832
	c 22.912-12.672, 49.12-19.872, 76.96-19.872c 89.984,0, 162.88,75.008, 162.88,167.552C 614.4,175.104, 608.288,200.384, 597.472,222.784z M 467.168,146.688
	c-12.992-18.912-32.192-33.92-57.056-44.544c-24.64-10.528-54.112-15.872-87.744-15.872c-40.352,0-74.144,7.296-100.544,21.728
	c-18.88,10.464-34.432,24.672-46.24,42.176c-11.936,17.728-17.984,35.296-17.984,52.224c0,10.592, 3.936,19.776, 11.712,27.296
	c 7.712,7.424, 17.568,11.232, 29.312,11.232c 9.632,0, 17.984-2.976, 24.736-8.832c 6.464-5.664, 12-14.016, 16.448-24.736
	c 4.992-11.744, 10.4-21.632, 16.128-29.44c 5.504-7.488, 13.44-13.824, 23.552-18.752c 10.176-4.928, 23.904-7.456, 40.8-7.456
	c 23.2,0, 42.24,5.088, 56.544,15.168c 14.016,9.856, 20.8,21.632, 20.8,36.064c0,11.392-3.552,20.384-10.848,27.392
	c-7.648,7.328-17.76,13.056-29.984,16.992c-12.768,4.096-30.112,8.512-51.52,13.12c-29.152,6.432-53.92,14.048-73.6,22.656
	C 211.584,291.872, 195.328,304.096, 183.456,319.392c-12.064,15.488-18.176,35.008-18.176,57.92c0,21.824, 6.4,41.504, 19.072,58.464
	c 12.576,16.832, 30.88,29.952, 54.496,38.944C 262.176,483.584, 289.92,488.096, 321.28,488.096c 25.088,0, 47.136-3.008, 65.536-8.864
	c 18.496-5.952, 34.112-13.952, 46.368-23.808c 12.352-9.952, 21.536-20.576, 27.328-31.552c 5.824-11.168, 8.768-22.24, 8.768-32.96
	c0-10.336-3.872-19.712-11.52-27.904c-7.68-8.224-17.408-12.384-28.832-12.384c-10.368,0-18.528,2.624-24.192,7.744
	c-5.248,4.768-10.72,12.256-16.736,22.944c-7.008,13.728-15.488,24.512-25.184,32.096c-9.472,7.392-25.216,11.168-46.912,11.168
	c-20.128,0-36.512-4.16-48.672-12.384C 255.488,404.256, 249.824,395.2, 249.824,384.48c0-6.592, 1.824-12.096, 5.6-16.8
	c 4-5.024, 9.6-9.44, 16.736-13.088c 7.36-3.808, 14.976-6.848, 22.592-9.024c 7.808-2.208, 20.896-5.504, 38.88-9.792
	c 22.72-5.024, 43.584-10.656, 62.048-16.704c 18.72-6.144, 34.88-13.76, 48.064-22.56c 13.44-9.024, 24.096-20.608, 31.648-34.4
	c 7.552-13.888, 11.392-31.008, 11.392-50.88C 486.816,187.36, 480.224,165.696, 467.168,146.688z"  />
<glyph unicode="&#xe015;" d="M 270.976,580.32C 131.744,556.96, 25.6,435.936, 25.6,290.048c0-72.512, 26.272-138.848, 69.728-190.112c 103.072,49.888, 175.104,162.72, 175.648,294.080L 270.976,580.32 z
	 M 320.032,215.744c-18.336-75.936-73.12-140.832-141.376-183.968c 41.952-23.008, 90.112-36.096, 141.344-36.096c 51.264,0, 99.392,13.088, 141.376,36.128
	C 393.12,74.944, 338.368,139.808, 320.032,215.744z M 369.088,395.424c0-131.968, 72.192-245.408, 175.584-295.488c 43.456,51.328, 69.728,117.632, 69.728,190.112
	c0,145.856-106.080,266.88-245.312,290.24L 369.088,395.424 z"  />
<glyph unicode="&#xe016;" d="M 476.128,285.824c-8.768,2.656-14.816,4.512-10.176,16.256c 9.952,25.504, 10.976,47.488, 0.192,63.2
	c-20.256,29.44-75.616,27.872-139.104,0.768c0,0.032-19.936-8.864-14.848,7.264c 9.76,31.936, 8.288,58.688-6.912,74.144
	C 270.848,482.528, 179.264,446.080, 100.672,366.176c-58.816-59.872-92.96-123.328-92.96-178.208c0-104.96, 132.224-175.168, 261.6-175.168
	c 169.6,0, 282.4,106.688, 282.4,186.304C 551.712,247.232, 511.904,274.528, 476.128,285.824z M 269.664,59.84c-103.232-10.208-192.32,36.672-199.040,104.832
	c-6.688,68.128, 71.552,131.68, 174.784,141.952c 103.264,10.272, 192.352-36.64, 199.040-104.768S 372.896,70.112, 269.664,59.84z M 644.544,371.296
	c-0.064,105.984-86.016,191.904-192,191.904c-12.384,0-22.4-10.016-22.4-22.4s 10.016-22.368, 22.4-22.368c 81.28,0, 147.2-65.92, 147.2-147.232
	c0-12.384, 10.016-22.4, 22.4-22.4s 22.4,10.016, 22.4,22.4C 644.544,371.2, 644.544,371.264, 644.544,371.296z M 555.52,374.56
	c-10.24,49.984-49.664,89.376-99.616,99.616c-12.096,2.464-23.968-5.312-26.432-17.44c-2.496-12.096, 5.312-23.936, 17.408-26.432
	c 32.512-6.656, 58.112-32.256, 64.736-64.736c 2.496-12.128, 14.336-19.904, 26.464-17.44C 550.176,350.624, 558.016,362.464, 555.52,374.56z M 216.704,239.904
	c-41.568-8.352-69.632-43.232-62.656-77.888c 6.944-34.656, 46.304-55.968, 87.904-47.584c 41.568,8.352, 69.632,43.232, 62.656,77.888
	C 297.664,226.944, 258.304,248.256, 216.704,239.904z"  />
<glyph unicode="&#xe017;" d="M 539.36,453.28c 8.704-16.448, 13.024-36.768, 13.024-61.184c0-55.424-23.36-100.16-70.016-134.112c-46.72-33.984-111.968-50.944-195.776-50.944
	L 266.976,207.040 c-14.752,0-29.504-11.584-32.8-25.76l-23.552-100.448c-3.296-14.208-18.048-25.824-32.8-25.824L 134.88,55.008 l-3.84-16.416
	C 127.712,24.416, 137.056,12.8, 151.776,12.8l 68.768,0 c 14.752,0, 29.536,11.584, 32.768,25.792l 23.584,100.48c 3.328,14.112, 18.048,25.728, 32.8,25.728l 19.616,0 
	c 83.808,0, 149.056,16.96, 195.744,50.976C 571.808,249.696, 595.2,294.4, 595.2,349.888c0,24.416-4.32,44.736-13.024,61.152
	c-8.672,16.32-21.312,29.632-37.792,39.776C 542.624,451.872, 541.184,452.288, 539.36,453.28z M 167.776,123.072l 23.584,100.48
	c 3.328,14.112, 18.016,25.728, 32.8,25.728l 19.616,0 c 83.808,0, 149.056,16.96, 195.744,50.976c 46.688,33.952, 70.048,78.656, 70.048,134.112
	c0,24.416-4.32,44.736-13.056,61.152c-8.672,16.32-21.312,29.632-37.76,39.776c-16.864,10.304-36.672,17.472-59.616,21.664
	C 376.192,561.088, 349.28,563.2, 318.368,563.2L 175.168,563.2 c-14.784,0-29.536-11.52-32.864-25.728L 45.472,123.104c-3.328-14.208, 6.016-25.824, 20.736-25.824
	l 68.768,0 C 149.76,97.28, 164.544,108.864, 167.776,123.072z M 223.968,363.488l 20.672,87.968C 247.968,465.632, 262.72,477.216, 277.408,477.216l 22.528,0 
	c 26.208,0, 46.112-4.416, 59.424-13.184c 13.344-8.704, 20.032-22.112, 20.032-40.32c0-27.488-10.4-48.736-31.040-63.648
	c-20.672-14.88-49.408-22.4-86.528-22.4L 244.8,337.664 C 230.016,337.664, 220.704,349.312, 223.968,363.488z"  />
<glyph unicode="&#xe018;" d="M 185.856,549.696C 86.976,498.848, 25.6,398.624, 25.6,287.392c0-20.288, 2.56-40.864, 7.072-61.376L 287.040,457.632
	C 259.904,482.304, 188.608,547.168, 185.856,549.696z M 441.376,555.968C 402.944,573.44, 362.112,582.4, 319.968,582.4c-29.888,0-59.36-4.96-88-14.112
	l 209.376-190.432L 441.344,555.968 z M 486.144,530.016l0-339.776 l 111.52,0 c 10.976,31.424, 16.704,64.096, 16.704,97.152C 614.4,384.416, 565.632,475.296, 486.144,530.016z
	 M 46.784,178.304c 21.568-54.208, 59.456-100.832, 107.776-133.888l0,232 l-65.408-59.552C 66.816,196.544, 48.16,179.552, 46.784,178.304z M 199.36,18.432
	c 29.92-13.504, 61.216-21.856, 93.44-24.832l 54.048,0 c 96.608,9.024, 183.264,66.208, 230.368,151.84L 199.36,145.44 L 199.36,18.432 z"  />
<glyph unicode="&#xe019;" d="M 21.504,177.408L 32,222.208l-10.496,46.304c-0.288,1.376-2.912,2.432-6.144,2.432c-3.264,0-5.888-1.056-6.144-2.432L0,222.208
	l 9.248-44.8c 0.256-1.408, 2.88-2.432, 6.144-2.432C 18.592,174.976, 21.216,176, 21.504,177.408z M 87.104,152.544L 96,221.792L 87.104,328.896
	C 86.848,331.648, 83.52,333.792, 79.488,333.792c-4.064,0-7.392-2.112-7.584-4.864L 64,221.792l 7.904-69.248c 0.192-2.72, 3.52-4.832, 7.584-4.832
	C 83.52,147.68, 86.848,149.824, 87.104,152.544z M 152.576,153.664L 160,221.76L 152.576,364.384c-0.192,3.328-4.16,5.984-8.992,5.984
	c-4.864,0-8.832-2.624-8.992-5.984L 128,221.76l 6.592-68.128c 0.16-3.328, 4.128-5.952, 8.992-5.952
	C 148.416,147.68, 152.384,150.304, 152.576,153.664z M 217.92,154.688L 224,221.728l-6.080,143.68C 217.76,369.376, 213.28,372.512, 207.68,372.512
	c-5.632,0-10.112-3.136-10.272-7.104L 192,221.728l 5.44-67.040c 0.096-3.936, 4.608-7.072, 10.24-7.072C 213.28,147.616, 217.76,150.688, 217.92,154.688z
	 M 283.2,155.52L 288,221.696L 283.2,386.432C 283.104,390.976, 277.952,394.656, 271.744,394.656c-6.208,0-11.328-3.68-11.424-8.224L 256,221.76
	c0-0.096, 4.32-66.208, 4.32-66.208c 0.096-4.48, 5.216-8.16, 11.424-8.16C 277.952,147.36, 283.104,151.008, 283.2,155.52z M 328.896,147.328
	c 0.192,0, 227.168-0.128, 228.64-0.128c 45.568,0, 82.464,35.712, 82.464,79.776s-36.896,79.776-82.464,79.776c-11.328,0-22.080-2.208-31.904-6.208
	C 519.072,372.416, 456.704,428.8, 380.672,428.8c-18.592,0-36.736-3.52-52.736-9.536C 321.728,416.928, 320.032,414.56, 320,409.92l0-253.152 
	C 320.064,151.872, 323.968,147.808, 328.896,147.328z"  />
<glyph unicode="&#xe01a;" d="M 305.472,55.744L 336,55.744 L 336-12.8 c 208.352,21.888, 319.424,228.512, 301.472,374.112c-18.048,145.6-174.432,246.144-350.208,224.608
		C 111.584,564.32-15.68,428.832, 2.336,283.232C 18.72,150.752, 149.536,55.616, 305.472,55.744z M 502.24,196.512l-58.624,0 L 443.616,355.008 
		c0,6.336-0.576,12.352-1.696,17.824c-0.928,4.768-2.688,8.736-5.248,12.128c-2.432,3.2-6.016,5.824-10.56,7.808
		c-4.864,2.112-11.616,3.2-19.936,3.2c-17.184,0-30.624-4.48-40-13.28C 356.8,373.952, 352.32,362.432, 352.32,347.52l0-151.008 L 293.696,196.512 L 293.696,355.008 
		c0,6.592-0.608,12.64-1.856,18.016C 290.752,377.888, 288.928,381.952, 286.304,385.408C 283.84,388.64, 280.576,391.136, 276.256,392.992
		C 271.648,394.944, 265.376,395.968, 257.664,395.968c-9.984,0-18.56-1.856-25.408-5.504C 225.12,386.656, 219.264,382.080, 214.912,376.896
		C 210.528,371.648, 207.328,366.208, 205.376,360.736C 203.392,355.232, 202.432,350.784, 202.432,347.52l0-151.008 L 143.84,196.512 L 143.84,442.752 l 56.256,0 l0-19.232 
		C 218.432,439.776, 241.856,448, 269.856,448c 16.32,0, 31.36-3.264, 44.768-9.696c 9.792-4.704, 17.728-11.744, 23.616-20.928
		c 7.36,7.936, 16.128,14.496, 26.016,19.488C 378.816,444.288, 394.944,448, 412.256,448c 12.864,0, 24.736-1.344, 35.328-4
		c 10.944-2.784, 20.576-7.232, 28.576-13.216c 8.256-6.176, 14.752-14.272, 19.328-24.032c 4.512-9.6, 6.816-21.088, 6.816-34.176L 502.304,196.512 z"  />
<glyph unicode="&#xe01b;" d="M 258.272,310.336c0,0, 60.576,4.704, 60.576,78.72S 269.28,499.2, 206.528,499.2L0,499.2 l0-413.632 l 206.528,0 c0,0, 126.048-4.128, 126.048,122.048
	C 332.608,207.616, 338.080,310.336, 258.272,310.336z M 91.008,425.696l 115.52,0 c0,0, 28.064,0, 28.064-43.040c0-43.040-16.512-49.28-35.264-49.28L 91.008,333.376 L 91.008,425.696 z
	 M 200.672,159.072L 91.008,159.072 l0,110.56 l 115.52,0 c0,0, 41.856,0.576, 41.856-56.8C 248.384,164.448, 217.12,159.424, 200.672,159.072z M 500.736,393.952
	c-152.64,0-152.512-158.88-152.512-158.88s-10.464-158.112, 152.512-158.112c0,0, 135.808-8.128, 135.808,110.016l-69.824,0 c0,0, 2.304-44.512-63.648-44.512
	c0,0-69.856-4.864-69.856,71.936l 205.664,0 C 638.912,214.368, 661.408,393.952, 500.736,393.952z M 562.848,269.6l-130.368,0 c0,0, 8.544,63.776, 69.856,63.776
	C 563.584,333.376, 562.848,269.6, 562.848,269.6z M 579.136,474.848L 415.36,474.848 l0-50.944 l 163.744,0 L 579.104,474.848 z"  />
<glyph unicode="&#xe01c;" d="M 381.568,582.4c-121.952,0-222.272-94.176-232.064-213.568C 77.088,340.576, 25.6,270.080, 25.6,187.808c0-107.104, 87.2-194.208, 194.336-194.208
		c 82.464,0, 153.12,51.616, 181.28,124.224c 119.232,10.016, 213.184,110.176, 213.184,231.904C 614.4,478.016, 509.984,582.4, 381.568,582.4z M 219.936,58.336
		c-71.424,0-129.536,58.048-129.536,129.472c0,47.424, 25.664,88.96, 63.84,111.52c 19.52-88.096, 89.184-157.6, 177.44-176.96
		C 309.152,84.096, 267.488,58.336, 219.936,58.336z M 222.016,317.248c 69.696-1.088, 126.176-57.44, 127.424-127.072
		C 285.504,203.008, 234.976,253.376, 222.016,317.248z M 414.24,190.24c-1.312,105.312-86.88,190.656-192.288,191.744c 15.040,74.304, 80.864,130.432, 159.584,130.432
		c 89.792,0, 162.816-72.992, 162.816-162.688C 544.384,271.168, 488.448,205.44, 414.24,190.24z M 92.16,444.32c 36.64,0, 66.4,29.76, 66.4,66.336
		c0,36.576-29.76,66.336-66.4,66.336c-36.608,0-66.368-29.76-66.368-66.336C 25.792,474.080, 55.552,444.32, 92.16,444.32z M 92.16,547.264
		c 20.192,0, 36.64-16.416, 36.64-36.608c0-20.16-16.416-36.608-36.64-36.608c-20.16,0-36.608,16.416-36.608,36.608
		C 55.552,530.848, 72,547.264, 92.16,547.264z"  />
<glyph unicode="&#xe01d;" d="M 353.12,256.608c-9.856,5.728-23.52,5.728-34.656,5.728L 281.952,262.336 l0-75.264 l 33.536,0 c 12.416,0, 28.224-0.864, 38.912,6.624
	c 9.856,6.624, 15.392,19.584, 15.392,31.936C 369.792,237.12, 362.944,250.848, 353.12,256.608z M 339.328,320.832
	c 8.128,6.176, 12.384,17.248, 12.384,27.392c0,11.040-5.12,21.632-14.496,27.36c-9.856,5.728-27.808,4.416-39.36,4.416L 281.952,380 l0-66.24 l 21.024,0 
	C 314.976,313.792, 329.088,312.896, 339.328,320.832z M 519.2,595.2L 120.768,595.2 C 61.152,595.2, 12.8,546.848, 12.8,487.2l0-398.368 c0-59.648, 48.352-108, 107.968-108
	l 398.4,0 c 59.648,0, 108,48.352, 108,108L 627.168,487.2 C 627.2,546.848, 578.848,595.2, 519.2,595.2z M 336.672,130.976L 211.168,130.976 L 211.168,433.92 l 137.12,0 
	c 39.712,0, 76.384-25.28, 76.384-69.888c0-34.432-19.232-58.016-43.744-65.376l0-0.864 c 36.384-7.488, 62.336-27.264, 62.336-74.912
	C 443.264,178.784, 413.216,130.976, 336.672,130.976z"  />
<glyph unicode="&#xe01e;" d="M 440,428A60,60 1260 1 0 560,428A60,60 1260 1 0 440,428zM 598.995,526.995c-54.674,54.672-143.316,54.672-197.991,0c-22.236-22.236-35.427-50.091-39.576-78.995l0,0 L 233.494,254.108
		c-17.191-0.881-34.235-5.26-49.979-13.135L 84.832,318.113c-22.844,17.859-55.839,13.814-73.695-9.030
		c-17.857-22.844-13.814-55.839, 9.030-73.695l 97.459-76.183c-10.6-41.739, 0.42-87.836, 33.081-120.496
		c 49.316-49.315, 129.27-49.315, 178.585,0c 30.291,30.291, 41.969,72.142, 35.047,111.354L 520,289.428l-0.001,0.001
		c 28.905,4.149, 56.76,17.34, 78.996,39.576C 653.669,383.678, 653.669,472.321, 598.995,526.995z M 240,43.814
		c-46.494,0-84.186,37.69-84.186,84.186c0,0.445, 0.026,0.884, 0.034,1.328l 41.82-32.69c 9.6-7.504, 20.989-11.14, 32.296-11.14
		c 15.601,0, 31.045,6.925, 41.399,20.17c 17.857,22.844, 13.814,55.839-9.030,73.695l-39.688,31.023c 5.601,1.174, 11.405,1.8, 17.355,1.8
		c 46.495,0, 84.186-37.69, 84.186-84.186S 286.495,43.814, 240,43.814z M 500,328c-55.229,0-100,44.771-100,100s 44.771,100, 100,100
		s 100-44.771, 100-100S 555.229,328, 500,328z"  />
<glyph unicode="&#xe01f;" d="M 80,288.005c0-92.516, 55.201-172.48, 135.269-210.361L 100.782,383.134C 87.465,354.066, 80,321.895, 80,288.005zM 482.017,299.795c0,28.896-10.659,48.898-19.784,64.464c-12.161,19.262-23.575,35.559-23.575,54.822
			c0,21.484, 16.729,41.485, 40.304,41.485c 1.065,0, 2.075-0.128, 3.11-0.189C 439.375,498.484, 382.485,521.75, 320.005,521.75
			c-83.85,0-157.616-41.904-200.528-105.355c 5.631-0.176, 10.941-0.284, 15.445-0.284c 25.096,0, 63.963,2.97, 63.963,2.97
			c 12.931,0.739, 14.458-17.771, 1.536-19.264c0,0-13.006-1.48-27.47-2.219l 87.396-253.191l 52.527,153.41l-37.389,99.781
			c-12.93,0.74-25.174,2.219-25.174,2.219c-12.939,0.745-11.42,20.001, 1.524,19.264c0,0, 39.625-2.97, 63.209-2.97
			c 25.091,0, 63.969,2.97, 63.969,2.97c 12.939,0.739, 14.463-17.771, 1.529-19.264c0,0-13.021-1.482-27.468-2.219L 439.813,146.338
			l 23.945,77.895C 474.12,256.576, 482.017,279.795, 482.017,299.795zM 324.214,267.56l-72.016-203.786c 21.51-6.161, 44.246-9.524, 67.805-9.524c 27.948,0, 54.752,4.699, 79.699,13.25
			c-0.636,1.001-1.234,2.065-1.719,3.221L 324.214,267.56zM 530.601,400.142c 1.032-7.444, 1.618-15.429, 1.618-24.036c0-23.706-4.558-50.373-18.251-83.719l-73.304-206.42
			C 512.015,126.485, 560,201.772, 560,288.004C 560,328.647, 549.338,366.854, 530.601,400.142zM 320,608C 143.269,608,0,464.731,0,288s 143.269-320, 320-320s 320,143.269, 320,320S 496.731,608, 320,608z M 320,8
		C 165.36,8, 40,133.36, 40,288S 165.36,568, 320,568s 280-125.36, 280-280S 474.64,8, 320,8z"  />
<glyph unicode="&#xe020;" d="M 598.623,368l-35.129,0 l-0.75,0 c-21.979,0-41.242,18.589-42.744,40l0,0C 520.003,522.168, 427.964,608, 313.006,608l-104.89,0 
	C 93.234,608, 0.081,515.5,0,401.334l0-226.749 C0,60.426, 93.234-32, 208.115-32l 224.013,0 C 547.095-32, 640,60.426, 640,174.585L 640,321.074 
	C 640,343.887, 621.6,368, 598.623,368z M 200,448l 120,0 c 22,0, 40-18, 40-40s-18-40-40-40l-120,0 c-22,0-40,18-40,40S 178,448, 200,448
	z M 440,128L 200,128 c-22,0-40,18-40,40s 18,40, 40,40l 240,0 c 22,0, 40-18, 40-40S 462,128, 440,128z"  />
<glyph unicode="&#xe021;" d="M 160,208A40,40 2700 1 0 240,208A40,40 2700 1 0 160,208zM 400,208A40,40 2700 1 0 480,208A40,40 2700 1 0 400,208zM 401.945,122.514 C 412.246,130.63 427.18,128.86 435.298,118.556 C 443.415,108.252 441.643,93.32 431.339,85.202 C 402.654,62.604 358.95,48 320,48 C 281.049,48 237.345,62.604 208.66,85.201 C 198.356,93.32 196.585,108.252 204.702,118.556 C 212.821,128.857 227.754,130.63 238.056,122.514 C 254.57,109.502 287.257,95.5 320,95.5 C 352.743,95.5 385.43,109.502 401.945,122.514 ZM 640,288c0,44.182-35.818,80-80,80c-30.072,0-56.245-16.606-69.907-41.137c-41.12,22.496-91.22,37.029-145.8,40.38
			l 47.739,107.204l 91.371-26.375C 491.623,424.732, 513.851,408, 540,408c 33.138,0, 60,26.862, 60,60s-26.862,60-60,60
			c-22.85,0-42.714-12.776-52.846-31.571L 385.337,525.819c-11.39,3.286-23.461-2.326-28.283-13.157l-64.856-145.641
			c-53.211-3.748-102.039-18.139-142.273-40.148C 136.261,351.404, 110.073,368, 80,368c-44.182,0-80-35.818-80-80
			c0-32.695, 19.626-60.784, 47.733-73.189C 42.689,199.794, 40,184.121, 40,168c0-110.456, 125.36-200, 280-200
			c 154.639,0, 280,89.544, 280,200c0,16.12-2.688,31.789-7.73,46.804C 620.376,227.21, 640,255.305, 640,288z M 540,490.5
			c 12.426,0, 22.5-10.074, 22.5-22.5s-10.074-22.5-22.5-22.5s-22.5,10.074-22.5,22.5S 527.574,490.5, 540,490.5z M 40,288c0,22.056, 17.944,40, 40,40
			c 15.942,0, 29.733-9.377, 36.154-22.904c-20.905-15.854-38.229-34.141-51.041-54.211C 50.41,256.804, 40,271.205, 40,288z M 320,15.5
			c-128.406,0-232.5,68.276-232.5,152.5s 104.094,152.5, 232.5,152.5c 128.406,0, 232.5-68.276, 232.5-152.5S 448.406,15.5, 320,15.5z M 574.888,250.885
			c-12.813,20.070-30.136,38.358-51.041,54.211C 530.269,318.623, 544.058,328, 560,328c 22.056,0, 40-17.944, 40-40
			C 600,271.205, 589.59,256.804, 574.888,250.885z"  />
<glyph unicode="&#xe022;" d="M 639.806,608l-70.674,0 L 414.381,395.565l-61.277,61.281c-8.629,8.63-20.106,13.383-32.316,13.383
	c-12.207,0-23.685-4.751-32.322-13.383l-27.821-27.822c-1.561,2.127-3.181,4.228-4.924,6.265
	c-37.905,44.299-104.544,49.505-148.843,11.589c-44.304-37.899-49.491-104.531-11.585-148.837c 8.694-10.168, 18.914-18.249, 30.019-24.246
	c 0.225-11.4, 4.661-22.734, 13.336-31.415L 288.463,92.579c 8.634-8.637, 20.114-13.396, 32.325-13.396c 12.214,0, 23.691,4.76, 32.316,13.394
	l 149.811,149.801c 8.637,8.635, 13.396,20.115, 13.396,32.325s-4.759,23.691-13.394,32.322l-17.236,17.237l 154.126,130.056L 639.808,608 z
	 M 309.674,435.63c 2.969,2.966, 6.915,4.6, 11.114,4.6c 4.196,0, 8.14-1.633, 11.102-4.595l 64.61-64.614l-70.225-96.401
	c-6.934-7.735-13.044-3.665-15.454-0.791c-0.828,0.974-17.304,22.546-38.609,50.489c 10.578,24.213, 11.723,51.76, 3.035,76.886
	L 309.674,435.63z M 481.705,285.81c 2.969-2.968, 4.605-6.911, 4.605-11.107s-1.636-8.14-4.607-11.11L 331.884,113.784
	c-2.963-2.966-6.902-4.601-11.096-4.601c-4.195,0-8.14,1.636-11.11,4.607l-148.287,148.274c 17.261-2.321, 35.045-0.391, 51.654,5.925
	l 99.481-80.011c0,0, 5.441-5.050, 11.447-0.171l 138.699,117.039L 481.705,285.81z"  />
<glyph unicode="&#xe023;" d="M 240,48 L 0,48 L 280,608 L 560,48 L 320,48 L 320,128 L 400,128 L 400,168 L 320,168 L 320,248 L 240,248 ZM 240,48L 320,48L 320-32L 240-32z"  />
<glyph unicode="&#xe024;" d="M 457.143,288q0,13.214 -10.714,19.286l-182.857,114.286q-11.071,7.143 -23.214,0.714q-11.786-6.429 -11.786-20l0-228.571 q0-13.571 11.786-20q 5.714-2.857 11.071-2.857q 7.143,0 12.143,3.571l 182.857,114.286q 10.714,6.071 10.714,19.286zM 640,288q0-34.286 -0.357-53.571t-3.036-48.75t-8.036-52.679q-5.714-26.071 -24.643-43.929t-44.286-20.714q-79.286-8.929 -239.643-8.929t-239.643,8.929q-25.357,2.857 -44.464,20.714t-24.821,43.929 q-5,23.214 -7.679,52.679t-3.036,48.75t-0.357,53.571t 0.357,53.571t 3.036,48.75t 8.036,52.679q 5.714,26.071 24.643,43.929t 44.286,20.714q 79.286,8.929 239.643,8.929t 239.643-8.929q 25.357-2.857 44.464-20.714t 24.821-43.929q 5-23.214 7.679-52.679t 3.036-48.75t 0.357-53.571z"  />
<glyph unicode="&#xe025;" d="M 85.184,138.669c-46.998,0-85.183-38.334-85.183-85.047c0-46.971, 38.188-84.876, 85.183-84.876
		c 47.166,0, 85.309,37.905, 85.309,84.876C 170.491,100.335, 132.353,138.669, 85.184,138.669zM 0.098,390.544l0-122.661 c 79.865,0, 154.974-31.233, 211.536-87.82c 56.49-56.449, 87.676-131.898, 87.676-212.063l 123.201,0 
		C 422.51,201.013, 232.96,390.544, 0.098,390.544zM 0.242,608l0-122.722 c 284.864,0, 516.722-232.084, 516.722-517.278L 640-32 C 640,320.794, 352.966,608, 0.242,608z"  />
<glyph unicode="&#xe026;" d="M 533.36,608L 106.679,608 C 48.006,608,0,559.99,0,501.317l0-426.64 C0,15.971, 48.006-32, 106.679-32l 426.681,0 
	C 592.031-32, 640,15.97, 640,74.678L 640,501.317 C 640,559.99, 592.031,608, 533.36,608z M 600,74.678c0-17.709-6.963-34.426-19.606-47.073
	C 567.755,14.962, 551.051,8, 533.36,8L 320,8 L 320,288 L 40,288 L 40,501.317 c0,17.692, 6.969,34.406, 19.623,47.060C 72.275,561.031, 88.987,568, 106.679,568
	L 320,568 l0-280 l 280,0 L 600,74.678 z"  />
<glyph unicode="&#xf004;" d="M 320,13.714q-9.286,0 -15.714,6.429l-222.857,215q-3.571,2.857 -9.821,9.286t-19.821,23.393t-24.286,34.821t-19.107,43.214t-8.393,49.286q0,78.571 45.357,122.857t 125.357,44.286q 22.143,0 45.179-7.679t 42.857-20.714t 34.107-24.464t 27.143-24.286q 12.857,12.857 27.143,24.286t 34.107,24.464t 42.857,20.714t 45.179,7.679q 80,0 125.357-44.286t 45.357-122.857q0-78.929 -81.786-160.714l-222.5-214.286 q-6.429-6.429 -15.714-6.429z"  />
<glyph unicode="&#xf08a;" d="M 594.286,395.143q0,28.929 -7.679,51.071t-19.643,35.179t-29.107,21.25t-33.571,11.071t-35,2.857t-40-9.107t-39.464-22.857t-30.893-25.714t-21.429-21.964q-6.429-7.857 -17.5-7.857t-17.5,7.857q-8.571,10 -21.429,21.964t-30.893,25.714t-39.464,22.857t-40,9.107t-35-2.857t-33.571-11.071t-29.107-21.25t-19.643-35.179t-7.679-51.071q0-60 66.786-126.786l 207.5-200l 207.143,199.643 q 67.143,67.143 67.143,127.143zM 640,395.143q0-78.929 -81.786-160.714l-222.5-214.286q-6.429-6.429 -15.714-6.429t-15.714,6.429l-222.857,215q-3.571,2.857 -9.821,9.286t-19.821,23.393t-24.286,34.821t-19.107,43.214t-8.393,49.286q0,78.571 45.357,122.857t 125.357,44.286q 22.143,0 45.179-7.679t 42.857-20.714t 34.107-24.464t 27.143-24.286q 12.857,12.857 27.143,24.286t 34.107,24.464t 42.857,20.714t 45.179,7.679 q 80,0 125.357-44.286t 45.357-122.857z"  />
<glyph unicode="&#x20;" horiz-adv-x="320" />
</font>
</defs>
</svg>
