<?xml version="1.0" standalone="no"?>
<!DOCTYPE svg PUBLIC "-//W3C//DTD SVG 1.1//EN" "http://www.w3.org/Graphics/SVG/1.1/DTD/svg11.dtd" >
<svg xmlns="http://www.w3.org/2000/svg">
<metadata>
This is a custom SVG font generated by IcoMoon.
<iconset grid="14"></iconset>
</metadata>
<defs>
<font id="builder-icon" horiz-adv-x="448" >
<font-face units-per-em="448" ascent="384" descent="-64" />
<missing-glyph horiz-adv-x="448" />
<glyph class="hidden" unicode="&#xf000;" d="M0,384L 448 -64L0 -64 z" horiz-adv-x="0" />
<glyph unicode="&#xe000;" d="M 392-64l-280,0 q-23.188,0 -39.594,16.406t-16.406,39.594l0,224 q-23.188,0 -39.594,16.406t-16.406,39.594l0,56 q0,23.188 16.406,39.594t 39.594,16.406l 336,0 q 23.188,0 39.594-16.406t 16.406-39.594l0-56 l0-280 q0-23.188 -16.406-39.594t-39.594-16.406zM 386.75,342l-129.5,0 q-3.5,0 -4.813-6.344t 2.188-10.281l 59.063-77.438q 3.5-3.938 8.313-3.938t 8.313,3.938l 59.063,77.438
q 3.5,3.938 2.188,10.281t-4.813,6.344zM 392,216l-280,0 l0-56 l 280,0 l0,56 zM 392,132l-280,0 l0-56 l 280,0 l0,56 zM 392,48l-280,0 l0-42 q0-5.688 4.156-9.844t 9.844-4.156l 252,0 q 5.688,0 9.844,4.156t 4.156,9.844l0,42 z"  />
<glyph unicode="&#xe001;" d="M 354.375,86.937l-119-150.938l-119,150.938q-31.938,33.25 -43.531,78.094t0,89.688t 43.531,78.531q 24.5,24.938 55.781,37.844t 63.219,12.906t 63.219-12.906t 55.781-37.844q 31.938-33.688 43.531-78.531t0-89.688t-43.531-78.094zM 235.594,327.562q-46.594,0 -79.406-32.813t-32.813-79.188t 32.813-78.969t 79.406-32.594t 79.406,32.594t 32.813,78.969t-32.813,79.188
t-79.406,32.813zM 235.813,160q-23.188,0 -39.594,16.406t-16.406,39.594t 16.406,39.594t 39.594,16.406t 39.594-16.406t 16.406-39.594t-16.406-39.594t-39.594-16.406z"  />
<glyph unicode="&#xe002;" d="M 396.375,109.25q-20.125-20.125 -38.5-34.125q 3.063-15.75 5.25-31.063q 3.5-29.75 3.938-49.656t-3.281-33.688t-11.156-19.469t-21-5.031t-31.281,7.219t-43.531,19.25q-15.313,7.875 -30.188,17.063q-14-8.75 -30.188-17.063q-25.813-12.688 -43.531-19.25t-31.281-7.219t-21,5.031t-11.156,19.469t-3.281,33.688t 3.938,49.656q 2.188,14.875 5.25,31.063q-18.375,14 -38.5,34.125q-21,21 -33.469,36.531t-17.5,28.656
t-1.969,22.313t 15.313,17.063t 31.719,13.344t 50.094,11.156q 21.438,3.5 39.813,5.25q 7.438,17.938 18.375,38.063q 14,25.813 24.938,41.781t 21.875,24.5t 20.563,8.531t 20.563-8.531t 21.875-24.5t 24.938-41.781q 10.938-20.125 18.375-38.063q 18.375-1.75 39.813-5.25q 30.625-5.688 50.094-11.156t 31.719-13.344t 15.313-17.063t-1.969-22.313t-17.5-28.656t-33.469-36.531z"  />
<glyph unicode="&#xe003;" d="M 392-64l-336,0 q-23.188,0 -39.594,16.406t-16.406,39.594l0,336 q0,23.188 16.406,39.375t 39.594,16.188l 336,0 q 11.813,0 23.188-4.813l-51.188-50.75l-280,0 q-11.375,0 -19.688-8.313t-8.313-19.688l0-280 q0-11.813 8.094-19.906t 19.906-8.094l 280,0 q 11.375,0 19.688,8.094t 8.313,19.906l0,168 l 56,56l0-252 q0-23.188 -16.406-39.594t-39.594-16.406zM 244.125,84.312q-8.313-8.313 -20.563-7.875
q-12.688-0.438 -21,8.313l-82.25,81.813q-8.313,8.75 -8.313,20.781t 8.531,20.344t 20.344,8.313t 20.563-8.313l 63-63l 213.5,214.813q 10.063-14.438 10.063-31.5l0-29.75 q-3.5-13.563 -8.75-18.375z"  />
<glyph unicode="&#xe004;" d="M 392-64l-336,0 q-23.188,0 -39.594,16.406t-16.406,39.594l0,336 q0,23.188 16.406,39.375t 39.594,16.188l 336,0 q 23.188,0 39.594-16.188t 16.406-39.375l0-336 q0-23.188 -16.406-39.594t-39.594-16.406zM 392,300q0,11.375 -8.094,19.688t-19.906,8.313l-280,0 q-11.813,0 -19.906-8.313t-8.094-19.688l0-280 q0-11.813 8.094-19.906t 19.906-8.094l 280,0 q 11.813,0 19.906,8.094t 8.094,19.906
l0,280 zM 265.125,160l 62.125-62.125q 8.75-8.75 8.75-20.781t-8.531-20.344t-20.563-8.313t-20.781,8.313l-62.125,62.125l-62.125-62.563q-8.75-8.313 -20.563-8.313t-20.344,8.531t-8.531,20.563t 8.313,20.344l 62.563,62.563l-63,62.563q-8.313,8.75 -8.313,20.781t 8.313,20.344t 20.344,8.313t 20.781-8.313l 62.563-63l 63,63q 8.313,8.313 20.344,8.313t 20.563-8.531t 8.531-20.563t-8.75-20.344z"  />
<glyph unicode="&#xe005;" d="M 308-64l0,168 l 140,56l0-168 zM 308,328l 140,56l0-196 l-140-56l0,196 zM 168,160l 112-56l0-168 l-112,56l0,168 zM 168,384l 112-56l0-196 l-112,56l0,196 zM0,104l 140,56l0-168 l-140-56l0,168 zM0,328l 140,56l0-196 l-140-56l0,196 z"  />
<glyph unicode="&#xe006;" d="M 448.438,181.437l-88.375-98l 12.688-129.938q-1.313-8.75 -8.313-13.781t-15.75-3.281l-122.063,52.063l-122.063-52.063q-8.75-1.75 -15.75,3.5t-8.313,13.563l 12.688,129.938l-88.375,98q-3.938,7.438 -1.094,15.75t 10.281,12.25l 130.375,28l 67.375,112.875q 6.125,6.125 14.875,6.125t 14.875-6.125l 67.375-112.875l 130.375-28q 7.438-3.938 10.281-12.25t-1.094-15.75z"  />
<glyph unicode="&#xe007;" d="M 392,104l-336,0 q-23.188,0 -39.594,16.406t-16.406,39.594t 16.406,39.594t 39.594,16.406l 336,0 q 23.188,0 39.594-16.406t 16.406-39.594t-16.406-39.594t-39.594-16.406zM 392,188l-210,0 q-5.688,0 -9.844-4.156t-4.156-9.844l0-28 q0-5.688 4.156-9.844t 9.844-4.156l 210,0 q 11.375,0 19.688,8.094t 8.313,19.688t-8.313,19.906t-19.688,8.313zM 392,272l-336,0 
q-23.188,0 -39.594,16.406t-16.406,39.594t 16.406,39.594t 39.594,16.406l 336,0 q 23.188,0 39.594-16.406t 16.406-39.594t-16.406-39.594t-39.594-16.406zM 392,356l-42,0 q-5.688,0 -9.844-4.156t-4.156-9.844l0-28 q0-6.125 4.156-10.063t 9.844-3.938l 42,0 q 11.375,0 19.688,8.094t 8.313,19.688t-8.313,19.906t-19.688,8.313zM 56,48l 336,0 q 23.188,0 39.594-16.406t 16.406-39.594
t-16.406-39.594t-39.594-16.406l-336,0 q-23.188,0 -39.594,16.406t-16.406,39.594t 16.406,39.594t 39.594,16.406zM 252-22q0-5.688 4.156-9.844t 9.844-4.156l 126,0 q 11.375,0 19.688,8.094t 8.313,19.688t-8.313,19.906t-19.688,8.313l-126,0 q-5.688,0 -9.844-4.156t-4.156-9.844l0-28 z"  />
<glyph unicode="&#xe008;" d="M 420.219,244q-11.594,0 -19.906,8.313t-8.313,19.688q0,23.188 -16.406,39.594t-39.594,16.406l-28,0 q-11.375,0 -19.688-8.094t-8.313-19.906l0-280 q0-11.375 8.313-19.688t 19.906-8.313t 19.688-8.094t 8.094-19.688t-8.094-19.906t-19.906-8.313l-168,0 q-11.375,0 -19.688,8.094t-8.313,19.906t 8.313,19.906t 19.906,8.094t 19.688,8.313t 8.094,19.688l0,280 q0,11.813 -8.094,19.906t-19.906,8.094
l-28,0 q-23.188,0 -39.594-16.406t-16.406-39.594q0-11.375 -8.094-19.688t-19.688-8.313t-19.906,8.313t-8.313,19.688l0,84 q0,11.375 8.313,19.688t 19.688,8.313l 392,0 q 11.375,0 19.688-8.313t 8.313-19.688l0-84 q0-11.813 -8.094-19.906t-19.688-8.094z"  />
<glyph unicode="&#xe009;" d="M 160,240q0-20 -14-34t-34-14t-34,14t-14,34t 14,34t 34,14t 34-14t 14-34zM 416,144l0-112 l-352,0 l0,48 l 80,80l 40-40l 128,128zM 440,320l-400,0 q-3.25,0 -5.625-2.375t-2.375-5.625l0-304 q0-3.25 2.375-5.625t 5.625-2.375l 400,0 q 3.25,0 5.625,2.375t 2.375,5.625l0,304  q0,3.25 -2.375,5.625t-5.625,2.375zM 480,312l0-304 q0-16.5 -11.75-28.25t-28.25-11.75l-400,0 q-16.5,0 -28.25,11.75t-11.75,28.25l0,304 q0,16.5 11.75,28.25t 28.25,11.75l 400,0 q 16.5,0 28.25-11.75t 11.75-28.25z" horiz-adv-x="480"  />
<glyph unicode="&#xe00a;" d="M 371.872-29.92l-36.678,10.064l-0.084,101.453l 35.085-9.868l 50.586,188.829L 164.536,329.219
	l-16.886-62.985L 118.744,266.234 l 26.041,97.176l 310.215-83.114L 371.872-29.92z M 322.040-63.649L0-63.649 L0,257.525 l 322.040,0 L 322.040-63.649 z M 294.113,229.597L 27.928,229.597 l0-195.483 l 266.185,0 
	L 294.113,229.597 z M 109.714,90.207l 31.912,51.607l 31.912-32.163l 43.877,66.075l 45.89-113.697L 59.84,62.028 l 25.929,51.859L 109.714,90.207z M 90.633,144.82
	c-11.574,0-20.953,9.365-20.953,20.939s 9.379,20.939, 20.953,20.939s 20.939-9.365, 20.939-20.939S 102.208,144.82, 90.633,144.82z" horiz-adv-x="455"  />
<glyph unicode="&#xe00b;" d="M 448,296l0-272 q0-10.5 -9.75-14.75q-3.25-1.25 -6.25-1.25q-6.75,0 -11.25,4.75l-100.75,100.75l0-41.5 q0-29.75 -21.125-50.875t-50.875-21.125l-176,0 q-29.75,0 -50.875,21.125t-21.125,50.875l0,176 q0,29.75 21.125,50.875t 50.875,21.125l 176,0 q 29.75,0 50.875-21.125t 21.125-50.875l0-41.25 l 100.75,100.5q 4.5,4.75 11.25,4.75q 3,0 6.25-1.25 q 9.75-4.25 9.75-14.75z"  />
<glyph unicode="&#xe00c;" d="M 448,206.5l0-198.5 q0-16.5 -11.75-28.25t-28.25-11.75l-368,0 q-16.5,0 -28.25,11.75t-11.75,28.25l0,198.5 q 11-12.25 25.25-21.75q 90.5-61.5 124.25-86.25q 14.25-10.5 23.125-16.375t 23.625-12t 27.5-6.125l 0.25,0 l 0.25,0 q 12.75,0 27.5,6.125t 23.625,12t 23.125,16.375q 42.5,30.75 124.5,86.25q 14.25,9.75 25,21.75zM 448,280q0-19.75 -12.25-37.75t-30.5-30.75 q-94-65.25 -117-81.25q-2.5-1.75 -10.625-7.625t-13.5-9.5t-13-8.125t-14.375-6.75t-12.5-2.25l-0.25,0 l-0.25,0 q-5.75,0 -12.5,2.25t-14.375,6.75t-13,8.125t-13.5,9.5t-10.625,7.625q-22.75,16 -65.5,45.625t-51.25,35.625q-15.5,10.5 -29.25,28.875t-13.75,34.125q0,19.5 10.375,32.5t 29.625,13l 368,0 q 16.25,0 28.125-11.75t 11.875-28.25z"  />
<glyph unicode="&#xe00d;" d="M 90.75,0l 22.75,22.75l-58.75,58.75l-22.75-22.75l0-26.75 l 32,0 l0-32 l 26.75,0 zM 221.5,232q0,5.5 -5.5,5.5q-2.5,0 -4.25-1.75l-135.5-135.5q-1.75-1.75 -1.75-4.25q0-5.5 5.5-5.5q 2.5,0 4.25,1.75l 135.5,135.5q 1.75,1.75 1.75,4.25zM 208,280l 104-104l-208-208l-104,0 l0,104 zM 378.75,256q0-13.25 -9.25-22.5l-41.5-41.5l-104,104l 41.5,41.25q 9,9.5 22.5,9.5 q 13.25,0 22.75-9.5l 58.75-58.5q 9.25-9.75 9.25-22.75z" horiz-adv-x="384"  />
<glyph unicode="&#xe00e;" d="M 84.812,288.31l 9.604-9.604l-39.312-39.312l 30.632-30.632l 39.494,39.494l 8.974-8.974
			l-39.494-39.508l 30.24-30.226l 89.824,89.824L 105.406,368.096L 15.904,278.594L 45.5,248.984L 84.812,288.31z M 323.386,150.774l-89.824-89.838l 30.226-30.226
			l 39.508,39.494l 8.974-8.974l-39.494-39.494l 30.632-30.632l 39.298,39.312l 9.604-9.604l-39.298-39.312l 29.582-29.596l 89.516,89.516L 323.386,150.774z
			 M 417.508,265.686c 10.934,10.948, 11.018,28.63, 0.168,39.494l-49.168,49.154c-10.85,10.85-28.546,10.794-39.48-0.168l-30.38-30.38l 88.48-88.48
			L 417.508,265.686z M 47.572,20.812l 36.722-36.722l 73.976,26.278l-84.42,84.42L 47.572,20.812z M 289.1,314.798L 80.71,106.394l 89.166-89.166
			L 378.28,225.632L 289.1,314.798z M 121.198,106.576L 288.932,274.31l 9.772-9.772L 130.956,96.79L 121.198,106.576z M 140.742,87.018l 167.72,167.734
			l 9.772-9.772L 150.5,77.26L 140.742,87.018z M 160.286,67.488L 328.020,235.222l 9.758-9.772l-167.72-167.734L 160.286,67.488z M 27.356-36.14
			l 42.924,15.638l-27.286,27.286L 27.356-36.14z"  />
<glyph unicode="&#xe00f;" d="M 112,272q0,13.25 -9.375,22.625t-22.625,9.375t-22.625-9.375t-9.375-22.625t 9.375-22.625t 22.625-9.375t 22.625,9.375t 9.375,22.625zM 378.75,128q0-13.25 -9.25-22.5l-122.75-123q-9.75-9.25 -22.75-9.25q-13.25,0 -22.5,9.25l-178.75,179q-9.5,9.25 -16.125,25.25t-6.625,29.25l0,104 q0,13 9.5,22.5t 22.5,9.5l 104,0 q 13.25,0 29.25-6.625t 25.5-16.125 l 178.75-178.5q 9.25-9.75 9.25-22.75z" horiz-adv-x="384"  />
<glyph unicode="&#xe010;" d="M 112,272q0,13.25 -9.375,22.625t-22.625,9.375t-22.625-9.375t-9.375-22.625t 9.375-22.625t 22.625-9.375t 22.625,9.375t 9.375,22.625zM 378.75,128q0-13.25 -9.25-22.5l-122.75-123q-9.75-9.25 -22.75-9.25q-13.25,0 -22.5,9.25l-178.75,179q-9.5,9.25 -16.125,25.25t-6.625,29.25l0,104 q0,13 9.5,22.5t 22.5,9.5l 104,0 q 13.25,0 29.25-6.625t 25.5-16.125 l 178.75-178.5q 9.25-9.75 9.25-22.75zM 474.75,128q0-13.25 -9.25-22.5l-122.75-123q-9.75-9.25 -22.75-9.25q-9,0 -14.75,3.5t-13.25,11.25l 117.5,117.5q 9.25,9.25 9.25,22.5q0,13 -9.25,22.75l-178.75,178.5q-9.5,9.5 -25.5,16.125t-29.25,6.625l 56,0 q 13.25,0 29.25-6.625t 25.5-16.125l 178.75-178.5q 9.25-9.75 9.25-22.75z" horiz-adv-x="480"  />
<glyph unicode="&#xe011;" d="M 416,232l0-176 q0-23 -16.5-39.5t-39.5-16.5l-304,0 q-23,0 -39.5,16.5t-16.5,39.5l0,240 q0,23 16.5,39.5t 39.5,16.5l 80,0 q 23,0 39.5-16.5t 16.5-39.5l0-8 l 168,0 q 23,0 39.5-16.5t 16.5-39.5z" horiz-adv-x="416"  />
<glyph unicode="&#xe012;" d="M 350,48q-40.688,0 -69.344,28.656t-28.656,69.344t 28.656,69.344t 69.344,28.656t 69.344-28.656t 28.656-69.344t-28.656-69.344t-69.344-28.656zM 98,48q-40.688,0 -69.344,28.656t-28.656,69.344t 28.656,69.344t 69.344,28.656t 69.344-28.656t 28.656-69.344t-28.656-69.344t-69.344-28.656z"  />
<glyph unicode="&#xe013;" d="M 127.75,245l 64.25,0 l-7.5-71l-56.75,0 l0-206 l-85.25,0 l0,206 l-42.5,0 l0,71 l 42.5,0 l0,42.75 q0,45.5 21.5,68.875t 70.75,23.375l 56.75,0 l0-71 l-35.5,0 q-9.75,0 -15.625-1.625t-8.5-5.875t-3.375-8.625t-0.75-12.375l0-35.5 z" horiz-adv-x="192"  />
<glyph unicode="&#xe014;" d="M 448,272q-39.813,0 -52.938-1.75q 25.375,15.313 38.938,57.75q-3.938-2.625 -12.906-8.313t-14.438-8.969t-13.781-6.781t-15.75-4.813q-27.125,28.875 -66.938,28.875q-40.25,0 -63.219-16.844t-22.969-53.156q0-1.75 -0.438-11.813t-0.438-18.594t 0.875-11.594q-58.625,3.063 -103.688,23.188t-78.313,60.813q-14-24.063 -14-42q0-24.938 7-41.344t 24.5-28.219q-17.5-0.438 -31.5-0.438
q0-66.5 63.875-79.188q-11.813-3.5 -24.5-3.5q-8.75,0 -17.063,1.75q 8.313-26.688 33.469-42.656t 56.219-16.406q-10.063-10.063 -23.625-16.188t-31.063-8.531t-28.438-2.844t-28.875-0.438q-1.75,0 -12.688-0.656t-15.313-0.219q 11.813-22.75 48.344-38.938t 92.531-16.188q 49,0 90.781,15.969t 70.875,42.656t 49.656,61.25t 30.188,71.75t 9.625,74.375q0,1.313 4.156,2.406t 10.719,3.281t 13.781,5.906t 14.875,11.594
t 12.469,18.813z"  />
<glyph unicode="&#xe015;" d="M 256,9q-10.5,60.25 -35,124.5l-0.5,0 l-0.5-0.25q-4-1.5 -10.75-4.125t-25.25-12.25t-34.25-20.5t-32.75-28.625t-25.75-37l-3.75,2.75q 46-37.5 104.5-37.5q 33,0 64,13zM 209.75,160.75q-5.25,12.25 -13.25,27.75q-77.75-23.25 -168.25-23.25q-0.25-1.75 -0.25-5.25q0-31 11-59.125t 31-50.375q 12.5,22.25 30.875,41.625t 35.625,31.125t 32.625,20.25 t 24.875,12l 9.25,3.25q 1,0.25 3.25,0.875t 3.25,1.125zM 183,213.75q-30,53.25 -61,94.5q-34.5-16.25 -58.5-46.5t-32-68q 75.5,0 151.5,20zM 354,134q-52.5,15 -102.25,7.25q 21.75-59.75 32-117.25q 27.75,18.75 46.25,47.375t 24,62.625zM 152.75,319.25q-0.25,0 -0.5-0.25q 0.25,0.25 0.5,0.25zM 300.25,283q-46.25,41 -108.25,41q-19,0 -38.75-4.75 q 32.75-42.5 61.5-95.5q 17.25,6.5 32.5,15.125t 24.125,15.375t 16.375,14.25t 9.375,10.125zM 356,161.75q-0.75,58 -37.25,102.5l-0.25-0.25q-2.25-3 -4.75-6.125t-10.875-11.125t-17.75-15.125t-25-16.25t-32.875-16.125q 6.25-13.25 11-23.75q 0.5-1.5 1.625-4.375t 1.875-4.125q 9,1.25 18.625,1.75t 18.375,0.5t 17.25-0.375t 16-1t 14.125-1.375t 12-1.625t 9.125-1.5 t 6.25-1.125zM 384,160q0-52.25 -25.75-96.375t-69.875-69.875t-96.375-25.75t-96.375,25.75t-69.875,69.875t-25.75,96.375t 25.75,96.375t 69.875,69.875t 96.375,25.75t 96.375-25.75t 69.875-69.875t 25.75-96.375z" horiz-adv-x="384"  />
<glyph unicode="&#xe016;" d="M 112.448,289.92L 336.448,289.92L 336.448,30.080L 112.448,30.080zM0,254.080L 83.776,254.080L 83.776,65.92L0,65.92zM 364.224,254.080L 448,254.080L 448,65.92L 364.224,65.92z"  />
<glyph unicode="&#xe017;" d="M 160,0q0-13.25 -9.375-22.625t-22.625-9.375t-22.625,9.375t-9.375,22.625t 9.375,22.625t 22.625,9.375t 22.625-9.375t 9.375-22.625zM 384,0q0-13.25 -9.375-22.625t-22.625-9.375t-22.625,9.375t-9.375,22.625t 9.375,22.625t 22.625,9.375t 22.625-9.375t 9.375-22.625zM 416,272l0-128 q0-6 -4-10.625t-10.25-5.375 l-261-30.5q 0.25-1.75 1.125-5.375t 1.5-6.625t 0.625-5.5q0-4 -6-16l 230,0 q 6.5,0 11.25-4.75t 4.75-11.25t-4.75-11.25t-11.25-4.75l-256,0 q-6.5,0 -11.25,4.75t-4.75,11.25q0,3.5 2.75,9.875t 7.375,14.875t 5.125,9.5l-44.25,205.75l-51,0 q-6.5,0 -11.25,4.75t-4.75,11.25t 4.75,11.25t 11.25,4.75l 64,0 q 4,0 7.125-1.625t 5-3.875t 3.25-6.125t 1.875-6.625 t 1.375-7.375t 1.125-6.375l 300.25,0 q 6.5,0 11.25-4.75t 4.75-11.25z" horiz-adv-x="416"  />
<glyph unicode="&#xe018;" d="M 392,160q-23.188,0 -39.594,16.406t-16.406,39.594q0-23.188 -16.406-39.594t-39.594-16.406t-39.594,16.406t-16.406,39.594q0-23.188 -16.406-39.594t-39.594-16.406t-39.594,16.406t-16.406,39.594q0-23.188 -16.406-39.594t-39.594-16.406t-39.594,16.406t-16.406,39.594q0,14.875 14,42l 40.25,104.563q 3.063,9.188 11.375,15.313t 16.625,6.125l 285.25,0 q 8.75,0 16.844-6.125
t 11.156-15.313l 38.5-104.563q 0.875-2.188 4.156-9.406t 5.031-11.375t 3.281-10.281t 1.531-10.938q0-23.188 -16.406-39.594t-39.594-16.406zM 28-8l0,112 q0,11.813 8.313,19.906t 19.688,8.094t 19.688-8.094t 8.313-19.906l0-112 l 84,0 l0,112 q0,11.813 8.094,19.906t 19.906,8.094l 56,0 q 11.813,0 19.906-8.094t 8.094-19.906l0-112 l 84,0 l0,112 q0,11.813 8.313,19.906t 19.688,8.094t 19.688-8.094
t 8.313-19.906l0-112 q 11.375,0 19.688-8.094t 8.313-19.688t-8.313-19.906t-19.688-8.313l-392,0 q-11.375,0 -19.688,8.313t-8.313,19.906t 8.313,19.688t 19.688,8.094z"  />
<glyph unicode="&#xe019;" d="M 391.563-64l-335.563,0 q-11.813,0 -19.906,8.094t-8.094,19.906l0,391.563 q0,11.813 8.094,19.906t 19.906,8.094l 196,0 l0-154 q0-5.688 3.938-9.844t 10.063-4.156l 153.563,0 l0-0.438 l0-251.125 q0-11.813 -8.094-19.906t-19.906-8.094zM 280,384q 10.938,0 19.25-7.875l 112-112.438q 8.313-8.313 8.313-20.125l-139.563,0 l0,140.438 z"  />
<glyph unicode="&#xe01a;" d="M 320,192l0-200 q0-10 -7-17t-17-7l-272,0 q-10,0 -17,7t-7,17l0,336 q0,10 7,17t 17,7l 136,0 l0-136 q0-10 7-17t 17-7l 136,0 zM 319.25,224l-127.25,0 l0,127.25 q 20.5-3.75 33-16.25l 78-78q 12.5-12.5 16.25-33z" horiz-adv-x="320"  />
<glyph unicode="&#xe01b;" d="M 56,384l 336,0 q 23.188,0 39.594-16.406t 16.406-39.594l0-336 q0-23.188 -16.406-39.594t-39.594-16.406l-336,0 q-23.188,0 -39.594,16.406t-16.406,39.594l0,336 q0,23.188 16.406,39.594t 39.594,16.406z"  />
<glyph unicode="&#xe01c;" d="M 69.664,170.58c-11.2,0.829-17.578,2.085-20.378,3.745c-4.77,2.8-6.901,7.167-6.901,13.078
		c0,4.459, 1.481,10.021, 4.385,16.866L 55.664,224.736l 74.51,0 l 11.2-26.212c 2.903-6.845, 4.458-10.711, 4.666-11.644
		c 0.623-1.971, 0.934-3.841, 0.934-5.708c0-3.11-1.142-5.551-3.421-7.21c-3.321-2.282-9.076-3.434-17.266-3.434L 121.184,170.528 l0-6.272 l 102.592,0 l0,6.324 
		c-6.72,0.518-11.232,2.236-14.756,5.452c-4.666,4.252-10.511,14.31-17.768,30.696L 115.241,379.296l-2.954,0 L 36.809,211.394
		c-7.155-16.074-13.315-26.325-18.189-31.459C 13.743,174.802, 7.392,171.721-0.224,170.58L-0.224,164.256 l 69.888,0 L 69.664,170.58 z M 93.464,308.58
		L 124.887,235.936L 61.108,235.936 L 93.464,308.58zM 246.624,351.968L 448.224,351.968L 448.224,312.096L 246.624,312.096zM 246.624,278.048L 448.224,278.048L 448.224,237.728L 246.624,237.728zM 246.624,203.68L 448.224,203.68L 448.224,163.808L 246.624,163.808zM 0.224,128.416L 448.224,128.416L 448.224,88.544L 0.224,88.544zM 0.224,54.496L 448.224,54.496L 448.224,14.176L 0.224,14.176zM 0.224-19.872L 448.224-19.872L 448.224-59.744L 0.224-59.744z"  />
<glyph unicode="&#xe01d;" d="M 392-64l-336,0 q-11.375,0 -19.688,8.094t-8.313,19.906l0,391.563 q0,11.813 8.313,19.906t 19.688,8.094l 196,0 l0-154 q0-5.688 4.156-9.844t 9.844-4.156l 154,0 l0-0.438 l0-251.125 q0-11.813 -8.094-19.906t-19.906-8.094zM 277.813,16.937l-40.25,40.25q 14.438,21 14.438,46.813q0,35 -24.5,59.5t-59.281,24.5t-59.5-24.5t-24.719-59.5t 24.719-59.5t 59.281-24.5q 25.813,0 46.813,14.438l 40.25-40.25
q 2.188-2.188 5.469-2.188t 5.906,2.188l 11.375,11.375q 2.188,2.625 2.188,5.906t-2.188,5.469zM 168,48q-23.188,0 -39.594,16.406t-16.406,39.594t 16.406,39.594t 39.594,16.406t 39.594-16.406t 16.406-39.594t-16.406-39.594t-39.594-16.406zM 280,384q 11.375,0 19.25-7.875l 112.438-112.438q 8.313-8.313 8.313-20.125l-140,0 l0,140.438 z"  />
<glyph unicode="&#xe01e;" d="M 416,224q 13.25,0 22.625-9.375t 9.375-22.625t-9.375-22.625t-22.625-9.375l0-96 q0-13 -9.5-22.5t-22.5-9.5q-104.25,86.75 -203,95q-14.5-4.75 -22.75-16.5t-7.75-25.125t 10-23.125q-5-8.25 -5.75-16.375t 1.5-14.5t 8.375-13.75t 12-12.5t 15.375-12.625q-7.25-14.5 -27.875-20.75t-42.125-2.875t-33,13.875q-1.75,5.75 -7.375,21.875 t-8,23.625t-5.75,22.25t-3.75,25.25t 0.875,24.625t 5.5,27.625l-30.5,0 q-16.5,0 -28.25,11.75t-11.75,28.25l0,48 q0,16.5 11.75,28.25t 28.25,11.75l 120,0 q 108.75,0 224,96q 13,0 22.5-9.5t 9.5-22.5l0-96 zM 384,73l0,238.5 q-98.5-75.5 -192-85.75l0-67.5 q 94.25-10.5 192-85.25z"  />
<glyph unicode="&#xe01f;" d="M 420,104l-392,0 q-11.813,0 -19.906,8.313t-8.094,19.688l0,56 q0,11.813 8.313,19.906t 19.688,8.094l 392,0 q 11.813,0 19.906-8.094t 8.094-19.906l0-56 q0-11.375 -8.094-19.688t-19.906-8.313zM 252,272l-56,0 q-11.813,0 -19.906,8.313t-8.094,19.688l0,56 q0,11.813 8.313,19.906t 19.688,8.094l 56,0 q 11.813,0 19.906-8.094t 8.094-19.906l0-56 q0-11.375 -8.094-19.688t-19.906-8.313z
M 196,48l 56,0 q 11.813,0 19.906-8.094t 8.094-19.906l0-56 q0-11.813 -8.313-19.906t-19.688-8.094l-56,0 q-11.813,0 -19.906,8.313t-8.094,19.688l0,56 q0,11.813 8.313,19.906t 19.688,8.094z"  />
<glyph unicode="&#xe020;" d="M 448-8q0-11.375 -8.094-19.688t-19.906-8.313l-392,0 q-11.813,0 -19.906,8.313t-8.094,19.688q0,7.438 3.938,14l 192.063,322q 3.5,7.875 5.031,10.5t 5.25,8.094t 7.875,7.438t 9.844,1.969q 7.438,0 12.906-4.375t 8.313-9.406t 6.781-14.219l 192.063-322q 3.938-6.563 3.938-14zM 252,216q0,11.813 -8.094,19.906t-19.906,8.094t-19.906-8.094t-8.094-19.906l0-84 q0-11.375 8.313-19.688
t 19.688-8.313t 19.688,8.313t 8.313,19.688l0,84 zM 223.781,76q-11.594,0 -19.688-8.094t-8.094-19.688t 8.313-19.906t 19.688-8.313t 19.688,8.313t 8.313,19.906t-8.313,19.688t-19.906,8.094z"  />
<glyph unicode="&#xe021;" d="M 96,48q0-20 -14-34t-34-14t-34,14t-14,34t 14,34t 34,14t 34-14t 14-34zM 224,17.25q 0.5-7 -4.25-12q-4.5-5.25 -11.75-5.25l-33.75,0 q-6.25,0 -10.75,4.125t-5,10.375q-5.5,57.25 -46.125,97.875t-97.875,46.125q-6.25,0.5 -10.375,5t-4.125,10.75l0,33.75 q0,7.25 5.25,11.75q 4.25,4.25 10.75,4.25l 1.25,0 q 40-3.25 76.5-20.125 t 64.75-45.375q 28.5-28.25 45.375-64.75t 20.125-76.5zM 352,16.75q 0.5-6.75 -4.5-11.75q-4.5-5 -11.5-5l-35.75,0 q-6.5,0 -11.125,4.375t-4.875,10.625q-3,53.75 -25.25,102.125t-57.875,84t-84,57.875t-102.125,25.5q-6.25,0.25 -10.625,4.875t-4.375,10.875l0,35.75 q0,7 5,11.5q 4.5,4.5 11,4.5l 0.75,0 q 65.5-3.25 125.375-30t 106.375-73.5 q 46.75-46.5 73.5-106.375t 30-125.375z" horiz-adv-x="352"  />
<glyph unicode="&#xe022;" d="M 420,132l-140,0 q0-11.375 -8.313-19.688t-19.688-8.313l-56,0 q-11.813,0 -19.906,8.313t-8.094,19.688l-140,0 q-11.813,0 -19.906,8.313t-8.094,19.906t 8.094,19.688t 19.906,8.094l 140,0 q0,11.813 8.094,19.906t 19.906,8.094l 56,0 q 11.813,0 19.906-8.094t 8.094-19.906l 140,0 q 11.813,0 19.906-8.094t 8.094-19.688t-8.094-19.906t-19.906-8.313zM 252,188l-56,0 l0-56 l 56,0 l0,56 
zM 420,300l-28,0 q0-11.375 -8.313-19.688t-19.688-8.313l-56,0 q-11.813,0 -19.906,8.313t-8.094,19.688l-252,0 q-11.813,0 -19.906,8.313t-8.094,19.906t 8.094,19.688t 19.906,8.094l 252,0 q0,11.813 8.094,19.906t 19.906,8.094l 56,0 q 11.813,0 19.906-8.094t 8.094-19.906l 28,0 q 11.813,0 19.906-8.094t 8.094-19.688t-8.094-19.906t-19.906-8.313zM 364,356l-56,0 l0-56 l 56,0 l0,56 z
M 28,20l 28,0 q0,11.813 8.094,19.906t 19.906,8.094l 56,0 q 11.375,0 19.688-8.094t 8.313-19.906l 252,0 q 11.813,0 19.906-8.094t 8.094-19.688t-8.313-19.906t-19.688-8.313l-252,0 q0-11.813 -8.313-19.906t-19.688-8.094l-56,0 q-11.813,0 -19.906,8.313t-8.094,19.688l-28,0 q-11.813,0 -19.906,8.313t-8.094,19.906t 8.094,19.688t 19.906,8.094zM 84-36l 56,0 l0,56 l-56,0 l0-56 z"  />
<glyph unicode="&#xe023;" d="M 256,160q0,26.5 -18.75,45.25t-45.25,18.75t-45.25-18.75t-18.75-45.25t 18.75-45.25t 45.25-18.75t 45.25,18.75t 18.75,45.25zM 384,187.25l0-55.5 q0-3 -2-5.75t-5-3.25l-46.25-7q-4.75-13.5 -9.75-22.75q 8.75-12.5 26.75-34.5q 2.5-3 2.5-6.25t-2.25-5.75q-6.75-9.25 -24.75-27t-23.5-17.75q-3,0 -6.5,2.25l-34.5,27q-11-5.75 -22.75-9.5 q-4-34 -7.25-46.5q-1.75-7 -9-7l-55.5,0 q-3.5,0 -6.125,2.125t-2.875,5.375l-7,46q-12.25,4 -22.5,9.25l-35.25-26.75q-2.5-2.25 -6.25-2.25q-3.5,0 -6.25,2.75q-31.5,28.5 -41.25,42q-1.75,2.5 -1.75,5.75q0,3 2,5.75q 3.75,5.25 12.75,16.625t 13.5,17.625q-6.75,12.5 -10.25,24.75l-45.75,6.75q-3.25,0.5 -5.25,3.125t-2,5.875l0,55.5 q0,3 2,5.75t 4.75,3.25 l 46.5,7q 3.5,11.5 9.75,23q-10,14.25 -26.75,34.5q-2.5,3 -2.5,6q0,2.5 2.25,5.75q 6.5,9 24.625,26.875t 23.625,17.875q 3.25,0 6.5-2.5l 34.5-26.75q 11,5.75 22.75,9.5q 4,34 7.25,46.5q 1.75,7 9,7l 55.5,0 q 3.5,0 6.125-2.125t 2.875-5.375l 7-46q 12.25-4 22.5-9.25l 35.5,26.75q 2.25,2.25 6,2.25q 3.25,0 6.25-2.5q 32.25-29.75 41.25-42.5q 1.75-2 1.75-5.5 q0-3 -2-5.75q-3.75-5.25 -12.75-16.625t-13.5-17.625q 6.5-12.5 10.25-24.5l 45.75-7q 3.25-0.5 5.25-3.125t 2-5.875z" horiz-adv-x="384"  />
<glyph unicode="&#xe024;" d="M 264,192q 10,0 17-7t 7-17l0-144 q0-10 -7-17t-17-7l-240,0 q-10,0 -17,7t-7,17l0,144 q0,10 7,17t 17,7l 8,0 l0,80 q0,46.25 32.875,79.125t 79.125,32.875t 79.125-32.875t 32.875-79.125q0-6.5 -4.75-11.25t-11.25-4.75l-16,0 q-6.5,0 -11.25,4.75t-4.75,11.25q0,26.5 -18.75,45.25t-45.25,18.75t-45.25-18.75t-18.75-45.25 l0-80 l 184,0 z" horiz-adv-x="288"  />
<glyph unicode="&#xe025;" d="M 78.148,103.244L 286.552,311.648l 89.166-89.166L 167.314,14.078L 78.148,103.244z
	 M 296.142,261.388l-9.772,9.758L 118.636,103.426l 9.772-9.772L 296.142,261.388z M 315.686,241.844l-9.772,9.772L 138.18,83.868l 9.758-9.758
	L 315.686,241.844z M 335.23,222.3l-9.772,9.772L 157.724,64.338l 9.772-9.772L 335.23,222.3z M 326.466,351.016
	c 10.934,10.962, 28.63,11.032, 39.48,0.182l 49.168-49.168c 10.85-10.85, 10.78-28.532-0.168-39.48l-30.38-30.38l-88.48,88.48L 326.466,351.016z
	 M 71.288,91.638l 84.42-84.42L 81.732-19.060l-36.722,36.722L 71.288,91.638z M 67.718-23.638l-42.924-15.638l 15.638,42.924L 67.718-23.638z"  />
<glyph unicode="&#xe026;" d="M 222,88l 29,29l-38,38l-29-29l0-14 l 24,0 l0-24 l 14,0 zM 332,268q-4,4 -8.25-0.25l-87.5-87.5q-4.25-4.25 -0.25-8.25t 8.25,0.25l 87.5,87.5q 4.25,4.25 0.25,8.25zM 352,119.5l0-47.5 q0-29.75 -21.125-50.875t-50.875-21.125l-208,0 q-29.75,0 -50.875,21.125t-21.125,50.875l0,208 q0,29.75 21.125,50.875t 50.875,21.125l 208,0  q 15.75,0 29.25-6.25q 3.75-1.75 4.5-5.75q 0.75-4.25 -2.25-7.25l-12.25-12.25q-3.5-3.5 -8-2q-5.75,1.5 -11.25,1.5l-208,0 q-16.5,0 -28.25-11.75t-11.75-28.25l0-208 q0-16.5 11.75-28.25t 28.25-11.75l 208,0 q 16.5,0 28.25,11.75t 11.75,28.25l0,31.5 q0,3.25 2.25,5.5l 16,16q 3.75,3.75 8.75,1.75t 5-7.25zM 328,304l 72-72l-168-168l-72,0 l0,72 zM 439,271l-23-23 l-72,72l 23,23q 7,7 17,7t 17-7l 38-38q 7-7 7-17t-7-17z"  />
<glyph unicode="&#xe027;" d="M 160,320l 128,0 l0,32 l-128,0 l0-32 zM 448,160l0-120 q0-16.5 -11.75-28.25t-28.25-11.75l-368,0 q-16.5,0 -28.25,11.75t-11.75,28.25l0,120 l 168,0 l0-40 q0-6.5 4.75-11.25t 11.25-4.75l 80,0 q 6.5,0 11.25,4.75t 4.75,11.25l0,40 l 168,0 zM 256,160l0-32 l-64,0 l0,32 l 64,0 zM 448,280l0-96 l-448,0 l0,96 q0,16.5 11.75,28.25t 28.25,11.75l 88,0 l0,40 q0,10 7,17 t 17,7l 144,0 q 10,0 17-7t 7-17l0-40 l 88,0 q 16.5,0 28.25-11.75t 11.75-28.25z"  />
<glyph unicode="&#xe028;" d="M 272.486,76.553c-9.673,1.539-9.894,28.137-9.894,28.137s 28.424,28.138, 34.618,65.976
	c 16.664,0, 26.958,40.226, 10.291,54.38C 308.198,239.944, 328.922,342, 224,342c-104.922,0-84.197-102.056-83.503-116.954
	c-16.666-14.153-6.374-54.38, 10.291-54.38c 6.194-37.838, 34.618-65.976, 34.618-65.976s-0.221-26.598-9.894-28.137
	C 144.354,71.595, 28,20.276, 28-36l 196,0 l 196,0 C 420,20.276, 303.646,71.595, 272.486,76.553z"  />
<glyph unicode="&#xe029;" d="M 352,32.75q0-30 -18.25-47.375t-48.5-17.375l-218.5,0 q-30.25,0 -48.5,17.375t-18.25,47.375q0,13.25 0.875,25.875t 3.5,27.25t 6.625,27.125t 10.75,24.375t 15.5,20.25t 21.375,13.375t 27.875,5q 2.25,0 10.5-5.375t 18.625-12t 27-12t 33.375-5.375t 33.375,5.375t 27,12t 18.625,12t 10.5,5.375q 15.25,0 27.875-5t 21.375-13.375t 15.5-20.25 t 10.75-24.375t 6.625-27.125t 3.5-27.25t 0.875-25.875zM 272,256q0-39.75 -28.125-67.875t-67.875-28.125t-67.875,28.125t-28.125,67.875t 28.125,67.875t 67.875,28.125t 67.875-28.125t 28.125-67.875z" horiz-adv-x="352"  />
<glyph unicode="&#xe02a;" d="M 144,160q0-6.5 -4.75-11.25l-112-112q-4.75-4.75 -11.25-4.75t-11.25,4.75t-4.75,11.25l0,224 q0,6.5 4.75,11.25t 11.25,4.75t 11.25-4.75l 112-112q 4.75-4.75 4.75-11.25z" horiz-adv-x="160"  />
<glyph unicode="&#xe02b;" d="M 320,48q0,6.5 -4.75,11.25t-11.25,4.75t-11.25-4.75t-4.75-11.25t 4.75-11.25t 11.25-4.75t 11.25,4.75t 4.75,11.25zM 384,48q0,6.5 -4.75,11.25t-11.25,4.75t-11.25-4.75t-4.75-11.25t 4.75-11.25t 11.25-4.75t 11.25,4.75t 4.75,11.25zM 416,104l0-80 q0-10 -7-17t-17-7l-368,0 q-10,0 -17,7t-7,17l0,80 q0,10 7,17t 17,7l 116.25,0 l 33.75-34 q 14.5-14 34-14t 34,14l 34,34l 116,0 q 10,0 17-7t 7-17zM 334.75,246.25q 4.25-10.25 -3.5-17.5l-112-112q-4.5-4.75 -11.25-4.75t-11.25,4.75l-112,112q-7.75,7.25 -3.5,17.5q 4.25,9.75 14.75,9.75l 64,0 l0,112 q0,6.5 4.75,11.25t 11.25,4.75l 64,0 q 6.5,0 11.25-4.75t 4.75-11.25l0-112 l 64,0 q 10.5,0 14.75-9.75z" horiz-adv-x="416"  />
<glyph unicode="&#xe02c;" d="M 352,136l0-120 q0-6.5 -4.75-11.25t-11.25-4.75l-96,0 l0,96 l-64,0 l0-96 l-96,0 q-6.5,0 -11.25,4.75t-4.75,11.25l0,120 q0,0.25 0.125,0.75t 0.125,0.75l 143.75,118.5l 143.75-118.5q 0.25-0.5 0.25-1.5zM 407.75,153.25l-15.5-18.5q-2-2.25 -5.25-2.75l-0.75,0 q-3.25,0 -5.25,1.75l-173,144.25l-173-144.25q-3-2 -6-1.75q-3.25,0.5 -5.25,2.75l-15.5,18.5q-2,2.5 -1.75,5.875t 2.75,5.375 l 179.75,149.75q 8,6.5 19,6.5t 19-6.5l 61-51l0,48.75 q0,3.5 2.25,5.75t 5.75,2.25l 48,0 q 3.5,0 5.75-2.25t 2.25-5.75l0-102 l 54.75-45.5q 2.5-2 2.75-5.375t-1.75-5.875z" horiz-adv-x="416"  />
<glyph unicode="&#xe02d;" d="M 442.75,0q0-13.25 -9.25-22.5l-26.75-27q-9.75-9.25 -22.75-9.25q-13.25,0 -22.5,9.25l-90.75,91q-9.5,9 -9.5,22.5q0,13.25 10.75,24l-64,64l-31.5-31.5q-3.5-3.5 -8.5-3.5t-8.5,3.5q 0.5-0.5 3.125-3t 3.125-3.25t 2.5-2.875t 2.5-3.375t 1.5-3.375t 1.375-4.125t 0.375-4.5q0-9.5 -7-17q-0.75-0.75 -4.125-4.5t-4.75-5.125 t-4.625-4.125t-5.5-3.875t-5.5-2.25t-6.5-1.125q-10,0 -17,7l-102,102q-7,7 -7,17q0,3.25 1.125,6.5t 2.25,5.5t 3.875,5.5t 4.125,4.625t 5.125,4.75t 4.5,4.125q 7.5,7 17,7q 2.5,0 4.5-0.375t 4.125-1.375t 3.375-1.5t 3.375-2.5t 2.875-2.5t 3.25-3.125t 3-3.125q-3.5,3.5 -3.5,8.5t 3.5,8.5l 87,87q 3.5,3.5 8.5,3.5t 8.5-3.5 q-0.5,0.5 -3.125,3t-3.125,3.25t-2.5,2.875t-2.5,3.375t-1.5,3.375t-1.375,4.125t-0.375,4.5q0,9.5 7,17q 0.75,0.75 4.125,4.5t 4.75,5.125t 4.625,4.125t 5.5,3.875t 5.5,2.25t 6.5,1.125q 10,0 17-7l 102-102q 7-7 7-17q0-3.25 -1.125-6.5t-2.25-5.5t-3.875-5.5t-4.125-4.625t-5.125-4.75t-4.5-4.125q-7.5-7 -17-7 q-2.5,0 -4.5,0.375t-4.125,1.375t-3.375,1.5t-3.375,2.5t-2.875,2.5t-3.25,3.125t-3,3.125q 3.5-3.5 3.5-8.5t-3.5-8.5l-31.5-31.5l 64-64q 10.75,10.75 24,10.75q 13,0 22.75-9.25l 90.75-90.75q 9.25-9.75 9.25-22.75z"  />
<glyph unicode="&#xe02e;" d="M 392-64l-336,0 q-11.375,0 -19.688,8.094t-8.313,19.906l0,392 q0,11.375 8.313,19.688t 19.688,8.313l 336,0 q 11.813,0 19.906-8.313t 8.094-19.688l0-392 q0-11.813 -8.094-19.906t-19.906-8.094zM 210,20l 28,0 q 5.688,0 9.844,4.156t 4.156,9.844t-4.156,9.844t-9.844,4.156l-28,0 q-5.688,0 -9.844-4.156t-4.156-9.844t 4.156-9.844t 9.844-4.156zM 98,20l 56,0 
q 5.688,0 9.844,4.156t 4.156,9.844t-4.156,9.844t-9.844,4.156l-56,0 q-5.688,0 -9.844-4.156t-4.156-9.844t 4.156-9.844t 9.844-4.156zM 98,104l 140,0 q 5.688,0 9.844,4.156t 4.156,9.844t-4.156,9.844t-9.844,4.156l-140,0 q-5.688,0 -9.844-4.156t-4.156-9.844t 4.156-9.844t 9.844-4.156zM 98,188l 56,0 q 5.688,0 9.844,4.156t 4.156,9.844t-4.156,9.844
t-9.844,4.156l-56,0 q-5.688,0 -9.844-4.156t-4.156-9.844t 4.156-9.844t 9.844-4.156zM 210,300l-112,0 q-5.688,0 -9.844-4.156t-4.156-9.844t 4.156-9.844t 9.844-4.156l 112,0 q 5.688,0 9.844,4.156t 4.156,9.844t-4.156,9.844t-9.844,4.156zM 350,300l-84,0 q-5.688,0 -9.844-4.156t-4.156-9.844t 4.156-9.844t 9.844-4.156l 84,0 q 5.688,0 9.844,4.156
t 4.156,9.844t-4.156,9.844t-9.844,4.156zM 350,216l-140,0 q-5.688,0 -9.844-4.156t-4.156-9.844t 4.156-9.844t 9.844-4.156l 140,0 q 5.688,0 9.844,4.156t 4.156,9.844t-4.156,9.844t-9.844,4.156zM 350,132l-56,0 q-5.688,0 -9.844-4.156t-4.156-9.844t 4.156-9.844t 9.844-4.156l 56,0 q 5.688,0 9.844,4.156t 4.156,9.844t-4.156,9.844t-9.844,4.156z
M 350,48l-56,0 q-5.688,0 -9.844-4.156t-4.156-9.844t 4.156-9.844t 9.844-4.156l 56,0 q 5.688,0 9.844,4.156t 4.156,9.844t-4.156,9.844t-9.844,4.156z"  />
<glyph unicode="&#xe02f;" d="M 322,229.566c0,7.742-6.272,14-14,14l-42,0 c0,0, 0.462,16.856, 0.462,41.356
			c0,22.75-18.844,43.512-42.462,43.512s-41.832-19.754-41.832-43.386c0-22.75-0.168-41.496-0.168-41.496l-42,0 c-7.742,0-14-6.258-14-14
			c0-7.728,0-27.132,0-27.132l 196,0 C 322,202.434, 322,221.838, 322,229.566z M 224,258.434c-7.742,0-14,6.272-14,14c0,7.742, 6.258,14, 14,14
			c 7.728,0, 14-6.258, 14-14C 238,264.706, 231.728,258.434, 224,258.434z M 392,229.566l-56,0.868l 0.294-43.456L 112,186.978 l0,41.706 l-56,0.868c-15.456,0-28-12.544-28-28
			l0-196 c0-15.456, 12.544-28, 28-28l 336,0 c 15.456,0, 28,12.544, 28,28l0,196 C 420,217.022, 407.456,229.566, 392,229.566z M 140,148.184
			c 16.912,0, 30.632-18.018, 30.632-40.25S 156.912,67.684, 140,67.684s-30.632,18.018-30.632,40.25S 123.088,148.184, 140,148.184z M 79.338,20.294
			c0,0, 3.318,26.628, 10.864,31.654c 7.532,5.026, 29.26,8.372, 29.26,8.372s 14.084-15.050, 20.076-15.050c 5.978,0, 20.062,15.050, 20.062,15.050
			s 21.728-3.332, 29.274-8.372c 8.862-5.908, 11.074-31.654, 11.074-31.654L 79.338,20.294 z M 364,33.566l-126,0 l0,14 l 126,0 L 364,33.566 z M 364,61.566l-126,0 l0,14 l 126,0 L 364,61.566 z
			 M 364,89.566l-126,0 l0,14 l 126,0 L 364,89.566 z M 364,117.566l-126,0 l0,14 l 126,0 L 364,117.566 z"  />
<glyph unicode="&#xe030;" d="M 360.99,314.672L 87.010,314.672 c-17.29,0-31.304-14.028-31.304-31.304l0-174.832 
			c0-17.276, 14.014-31.304, 31.304-31.304l 52.206,0 l 0.014-71.918l 79.856,71.918l 141.918,0 c 17.304,0, 31.304,14.028, 31.304,31.304L 392.308,283.368 
			C 392.294,300.644, 378.294,314.672, 360.99,314.672z M 140,188.434c-7.742,0-14,6.272-14,14c0,7.742, 6.258,14, 14,14c 7.728,0, 14-6.258, 14-14
			C 154,194.706, 147.728,188.434, 140,188.434z M 196,189.022c-7.742,0-14,6.272-14,14c0,7.742, 6.258,14, 14,14c 7.728,0, 14-6.258, 14-14
			C 210,195.294, 203.728,189.022, 196,189.022z M 252.28,188.728c-7.728,0-14,6.258-14,14c0,7.728, 6.272,14, 14,14c 7.742,0, 14-6.272, 14-14
			C 266.28,195, 260.008,188.728, 252.28,188.728z M 308,188.434c-7.742,0-14,6.272-14,14c0,7.742, 6.258,14, 14,14c 7.728,0, 14-6.258, 14-14
			C 322,194.706, 315.728,188.434, 308,188.434z"  />
<glyph unicode="&#xe031;" d="M 417.75,242.5q0-10 -7-17l-181-181l-34-34q-7-7 -17-7t-17,7l-34,34l-90.5,90.5q-7,7 -7,17t 7,17l 34,34q 7,7 17,7t 17-7l 73.5-73.75l 164,164.25q 7,7 17,7t 17-7l 34-34q 7-7 7-17z"  />
<glyph unicode="&#xe032;" d="M 352,151.5l0-79.5 q0-29.75 -21.125-50.875t-50.875-21.125l-208,0 q-29.75,0 -50.875,21.125t-21.125,50.875l0,208 q0,29.75 21.125,50.875t 50.875,21.125l 208,0 q 15.75,0 29.25-6.25q 3.75-1.75 4.5-5.75q 0.75-4.25 -2.25-7.25l-12.25-12.25q-2.5-2.5 -5.75-2.5q-0.75,0 -2.25,0.5q-5.75,1.5 -11.25,1.5l-208,0 q-16.5,0 -28.25-11.75t-11.75-28.25l0-208  q0-16.5 11.75-28.25t 28.25-11.75l 208,0 q 16.5,0 28.25,11.75t 11.75,28.25l0,63.5 q0,3.25 2.25,5.5l 16,16q 2.5,2.5 5.75,2.5q 1.5,0 3-0.75q 5-2 5-7.25zM 409.75,273.75l-203.5-203.5q-6-6 -14.25-6t-14.25,6l-107.5,107.5q-6,6 -6,14.25t 6,14.25l 27.5,27.5q 6,6 14.25,6t 14.25-6l 65.75-65.75l 161.75,161.75q 6,6 14.25,6t 14.25-6l 27.5-27.5 q 6-6 6-14.25t-6-14.25z" horiz-adv-x="416"  />
<glyph unicode="&#xe033;" d="M 171.25,59.25l 153.5,153.5q 4.75,4.75 4.75,11.25t-4.75,11.25l-25.5,25.5q-4.75,4.75 -11.25,4.75t-11.25-4.75l-116.75-116.75l-52.75,52.75q-4.75,4.75 -11.25,4.75t-11.25-4.75l-25.5-25.5q-4.75-4.75 -4.75-11.25t 4.75-11.25l 89.5-89.5q 4.75-4.75 11.25-4.75t 11.25,4.75zM 384,280l0-240 q0-29.75 -21.125-50.875t-50.875-21.125l-240,0 q-29.75,0 -50.875,21.125 t-21.125,50.875l0,240 q0,29.75 21.125,50.875t 50.875,21.125l 240,0 q 29.75,0 50.875-21.125t 21.125-50.875z" horiz-adv-x="384"  />
<glyph unicode="&#xe034;" d="M 224,40l0,48 q0,3.5 -2.25,5.75t-5.75,2.25l-48,0 q-3.5,0 -5.75-2.25t-2.25-5.75l0-48 q0-3.5 2.25-5.75t 5.75-2.25l 48,0 q 3.5,0 5.75,2.25t 2.25,5.75zM 288,208q0,22 -13.875,40.75t-34.625,29t-42.5,10.25q-60.75,0 -92.75-53.25q-3.75-6 2-10.5l 33-25q 1.75-1.5 4.75-1.5q 4,0 6.25,3q 13.25,17 21.5,23q 8.5,6 21.5,6q 12,0 21.375-6.5t 9.375-14.75 q0-9.5 -5-15.25t-17-11.25q-15.75-7 -28.875-21.625t-13.125-31.375l0-9 q0-3.5 2.25-5.75t 5.75-2.25l 48,0 q 3.5,0 5.75,2.25t 2.25,5.75q0,4.75 5.375,12.375t 13.625,12.375q 8,4.5 12.25,7.125t 11.5,8.75t 11.125,12t 7,15.125t 3.125,20.25zM 384,160q0-52.25 -25.75-96.375t-69.875-69.875t-96.375-25.75t-96.375,25.75t-69.875,69.875 t-25.75,96.375t 25.75,96.375t 69.875,69.875t 96.375,25.75t 96.375-25.75t 69.875-69.875t 25.75-96.375z" horiz-adv-x="384"  />
<glyph unicode="&#xe035;" d="M 420,216l-168,0 q-11.813,0 -19.906,8.094t-8.094,19.688t 8.094,19.906t 19.906,8.313l 168,0 q 11.375,0 19.688-8.313t 8.313-19.906t-8.313-19.688t-19.688-8.094zM 168-64l-140,0 q-11.813,0 -19.906,8.094t-8.094,19.906l0,140 q0,11.375 8.094,19.688t 19.906,8.313l 140,0 q 15.313,0 23.625-13.125l-100.625-101.063l-23.625,23.625q-6.563,7 -16.188,7t-16.406-6.781t-6.781-16.406t 6.563-16.625l 37.625-37.625
q 7.438-7.438 18.813-6.125q 11.375-1.313 18.813,6.125l 86.188,86.188l0-93.188 q0-11.813 -8.313-19.906t-19.688-8.094zM 168,188l-140,0 q-11.813,0 -19.906,8.094t-8.094,19.906l0,140 q0,11.375 8.094,19.688t 19.906,8.313l 140,0 q 15.313,0 23.625-13.125l-100.625-101.063l-23.625,23.625q-6.563,7 -16.188,7t-16.406-6.781t-6.781-16.406t 6.563-16.625l 37.625-37.625q 7.438-7.438 18.813-6.125q 11.375-1.313 18.813,6.125l 86.188,86.188
l0-93.188 q0-11.813 -8.313-19.906t-19.688-8.094zM 252,48l 168,0 q 11.375,0 19.688-8.313t 8.313-19.906t-8.313-19.688t-19.688-8.094l-168,0 q-11.813,0 -19.906,8.094t-8.094,19.688t 8.094,19.906t 19.906,8.313z"  />
<glyph unicode="&#xe036;" d="M 384,48l0-32 q0-6.5 -4.75-11.25t-11.25-4.75l-352,0 q-6.5,0 -11.25,4.75t-4.75,11.25l0,32 q0,6.5 4.75,11.25t 11.25,4.75l 352,0 q 6.5,0 11.25-4.75t 4.75-11.25zM 384,176l0-32 q0-6.5 -4.75-11.25t-11.25-4.75l-352,0 q-6.5,0 -11.25,4.75t-4.75,11.25l0,32 q0,6.5 4.75,11.25t 11.25,4.75l 352,0 q 6.5,0 11.25-4.75t 4.75-11.25zM 384,304l0-32 q0-6.5 -4.75-11.25 t-11.25-4.75l-352,0 q-6.5,0 -11.25,4.75t-4.75,11.25l0,32 q0,6.5 4.75,11.25t 11.25,4.75l 352,0 q 6.5,0 11.25-4.75t 4.75-11.25z" horiz-adv-x="384"  />
<glyph unicode="&#xe037;" d="M 232,288q 23.25,0 39.625-16.375t 16.375-39.625l0-176 q0-23 -16.375-39.5t-39.625-16.5l-176,0 q-23.25,0 -39.625,16.5t-16.375,39.5l0,176 q0,23.25 16.375,39.625t 39.625,16.375l 176,0 zM 256,56l0,176 q0,10 -7,17t-17,7l-176,0 q-10,0 -17-7t-7-17l0-176 q0-10 7-17t 17-7l 176,0 q 10,0 17,7t 7,17z M 216,160q 3.5,0 5.75-2.25t 2.25-5.75l0-16 q0-3.5 -2.25-5.75t-5.75-2.25l-144,0 q-3.5,0 -5.75,2.25t-2.25,5.75l0,16 q0,3.5 2.25,5.75t 5.75,2.25l 144,0 z" horiz-adv-x="288"  />
<glyph unicode="&#xe038;" d="M 420,188l-252-140l0,0 l0,0 q-11.813,0 -19.906,8.094t-8.094,19.906l0,279.563 q0,11.813 8.094,19.906t 19.906,8.094l 252-139.563q 0.875-0.438 2.188-1.313q 6.125-2.625 9.406-4.594t 7.656-5.25t 6.563-7.656t 2.188-9.188q0-5.688 -2.188-10.063t-7-7.875t-8.531-5.469t-10.281-4.594zM 168-36.219q0-11.594 -8.094-19.688t-19.906-8.094l-112,0 q-11.813,0 -19.906,8.094
t-8.094,19.688t 8.094,19.906t 19.906,8.313l 28,0 l0,363.563 q0,11.813 8.094,19.906t 19.906,8.094t 19.906-8.094t 8.094-19.906l0-363.563 l 28,0 q 11.813,0 19.906-8.313t 8.094-19.906z"  />
<glyph unicode="&#xe039;" d="M 374.063,48l-38.063,0 l-112-112l0,112 l-150.063,0 q-24.938,0 -49.438,24.938t-24.5,50.313l0,185.5 q0,25.375 24.5,50.313t 49.438,24.938l 300.125,0 q 24.938,0 49.438-24.938t 24.5-50.313l0-185.5 q0-25.375 -24.5-50.313t-49.438-24.938zM 196,216q0,11.813 -8.094,19.906t-19.906,8.094l-28,0 l0,28 l 14,0 q 5.688,0 9.844,4.156t 4.156,9.844t-4.156,9.844t-9.844,4.156l-42,0 q-11.375,0 -19.688-8.313t-8.313-19.688l0-112 
q0-11.375 8.313-19.688t 19.688-8.313l 56,0 q 11.375,0 19.688,8.313t 8.313,19.688l0,56 zM 364,216q0,11.813 -8.313,19.906t-19.688,8.094l-28,0 l0,28 l 14,0 q 5.688,0 9.844,4.156t 4.156,9.844t-4.156,9.844t-9.844,4.156l-42,0 q-11.813,0 -19.906-8.313t-8.094-19.688l0-112 q0-11.375 8.094-19.688t 19.906-8.313l 56,0 q 11.375,0 19.688,8.094t 8.313,19.906l0,56 z"  />
<glyph unicode="&#xe03a;" d="M 98.438,188 C 152.561,188 196.438,144.123 196.438,90 C 196.438,35.876 152.561-8 98.438-8 C 44.313-8 0.438,35.876 0.438,90 L 0,104 C 0,212.248 87.752,300 196,300 L 196,244 C 158.605,244 123.448,229.437 97.005,202.995 C 91.915,197.904 87.27,192.488 83.079,186.799 C 88.084,187.586 93.212,188 98.438,188 ZM 350.438,188 C 404.561,188 448.438,144.123 448.438,90 C 448.438,35.876 404.561-8 350.438-8 C 296.314-8 252.438,35.876 252.438,90 L 252,104 C 252,212.248 339.752,300 448,300 L 448,244 C 410.605,244 375.448,229.437 349.005,202.995 C 343.914,197.904 339.269,192.488 335.079,186.799 C 340.084,187.586 345.211,188 350.438,188 Z"  />
<glyph unicode="&#xe03b;" d="M 154.25,34.25l-12.5-12.5q-2.5-2.5 -5.75-2.5t-5.75,2.5l-116.5,116.5q-2.5,2.5 -2.5,5.75t 2.5,5.75l 116.5,116.5q 2.5,2.5 5.75,2.5t 5.75-2.5l 12.5-12.5q 2.5-2.5 2.5-5.75t-2.5-5.75l-98.25-98.25l 98.25-98.25q 2.5-2.5 2.5-5.75t-2.5-5.75zM 302,301l-93.25-322.75q-1-3.25 -3.875-4.875t-5.875-0.625l-15.5,4.25q-3.25,1 -4.875,3.875t-0.625,6.125 l 93.25,322.75q 1,3.25 3.875,4.875t 5.875,0.625l 15.5-4.25q 3.25-1 4.875-3.875t 0.625-6.125zM 466.25,138.25l-116.5-116.5q-2.5-2.5 -5.75-2.5t-5.75,2.5l-12.5,12.5q-2.5,2.5 -2.5,5.75t 2.5,5.75l 98.25,98.25l-98.25,98.25q-2.5,2.5 -2.5,5.75t 2.5,5.75l 12.5,12.5q 2.5,2.5 5.75,2.5t 5.75-2.5l 116.5-116.5q 2.5-2.5 2.5-5.75t-2.5-5.75z" horiz-adv-x="480"  />
<glyph unicode="&#xe03c;" d="M 448,72l0-80 q0-10 -7-17t-17-7l-80,0 q-10,0 -17,7t-7,17l0,80 q0,10 7,17t 17,7l 24,0 l0,48 l-128,0 l0-48 l 24,0 q 10,0 17-7t 7-17l0-80 q0-10 -7-17t-17-7l-80,0 q-10,0 -17,7t-7,17l0,80 q0,10 7,17t 17,7l 24,0 l0,48 l-128,0 l0-48 l 24,0 q 10,0 17-7t 7-17l0-80  q0-10 -7-17t-17-7l-80,0 q-10,0 -17,7t-7,17l0,80 q0,10 7,17t 17,7l 24,0 l0,48 q0,13 9.5,22.5t 22.5,9.5l 128,0 l0,48 l-24,0 q-10,0 -17,7t-7,17l0,80 q0,10 7,17t 17,7l 80,0 q 10,0 17-7t 7-17l0-80 q0-10 -7-17t-17-7l-24,0 l0-48 l 128,0 q 13,0 22.5-9.5t 9.5-22.5l0-48 l 24,0 q 10,0 17-7t 7-17 z"  />
<glyph unicode="&#xe03d;" d="M 417.111,351.344l-1.762,1.768c-41.19,41.184-108.585,41.184-149.768,0L 170.159,257.678
		c-41.184-41.183-41.184-108.577,0-149.761l 1.761-1.761c 3.426-3.433, 7.064-6.529, 10.822-9.388l 34.934,34.934
		c-4.070,2.404-7.93,5.281-11.426,8.776l-1.768,1.768c-22.362,22.355-22.362,58.744,0,81.108L 299.913,318.779
		c 22.363,22.364, 58.745,22.364, 81.106,0l 1.768-1.76c 22.356-22.363, 22.356-58.753,0-81.108l-43.175-43.175
		c 7.495-18.51, 11.046-38.238, 10.735-57.919l 66.764,66.764C 458.296,242.765, 458.296,310.159, 417.111,351.344zM 276.081,213.841c-3.426,3.426-7.064,6.528-10.822,9.38l-34.934-34.926c 4.071-2.405, 7.93-5.282, 11.426-8.777l 1.768-1.768
		c 22.363-22.363, 22.363-58.744,0-81.107L 148.088,1.209c-22.364-22.357-58.746-22.357-81.107,0l-1.768,1.768
		c-22.355,22.365-22.355,58.746,0,81.107l 43.176,43.175c-7.496,18.509-11.045,38.238-10.735,57.919l-66.763-66.762
		c-41.184-41.183-41.184-108.578,0-149.767l 1.761-1.764c 41.191-41.181, 108.584-41.181, 149.768,0l 95.423,95.427
		c 41.184,41.183, 41.184,108.585,0,149.768L 276.081,213.841z"  />
<glyph unicode="&#xe03e;" d="M 64,48q0,6.5 -4.75,11.25t-11.25,4.75q-6.75,0 -11.375-4.75t-4.625-11.25q0-6.75 4.625-11.375t 11.375-4.625q 6.5,0 11.25,4.625t 4.75,11.375zM 104,176l0-160 q0-6.5 -4.75-11.25t-11.25-4.75l-72,0 q-6.5,0 -11.25,4.75t-4.75,11.25l0,160 q0,6.5 4.75,11.25t 11.25,4.75l 72,0 q 6.5,0 11.25-4.75t 4.75-11.25zM 400,176q0-21.5 -13.75-37.25q 3.75-11 3.75-19 q 0.75-19 -10.75-34.25q 4.25-14 0-29.25q-3.75-14.25 -13.5-23.5q 2.25-28 -12.25-45.25q-16-19 -49.25-19.5l-9,0 l-19,0 l-4.25,0 q-16.5,0 -36,3.875t-30.375,7.25t-30.125,9.875q-30.75,10.75 -39.5,11q-6.5,0.25 -11.25,4.875t-4.75,11.125l0,160.25 q0,6.25 4.5,10.875t 10.75,5.125q 6,0.5 19,14.75t 25.25,30.25q 17,21.75 25.25,30q 4.5,4.5 7.75,12t 4.375,12.125 t 3.375,15.125q 1.75,9.75 3.125,15.25t 4.875,13t 8.5,12.5q 4.75,4.75 11.25,4.75q 11.5,0 20.625-2.625t 15-6.5t 10-10.125t 6-11.25t 3-12.5t 1.25-11.25t 0.125-9.75q0-9.5 -2.375-19t-4.75-15t-6.875-14q-0.75-1.5 -2.5-4.5t-2.75-5.5t-2-6l 69.25,0 q 19.5,0 33.75-14.25t 14.25-33.75z" horiz-adv-x="416"  />
<glyph unicode="&#xe03f;" d="M 64,240q0-6.5 -4.75-11.25t-11.25-4.75q-6.75,0 -11.375,4.75t-4.625,11.25q0,6.75 4.625,11.375t 11.375,4.625q 6.5,0 11.25-4.625t 4.75-11.375zM 104,112l0,160 q0,6.5 -4.75,11.25t-11.25,4.75l-72,0 q-6.5,0 -11.25-4.75t-4.75-11.25l0-160 q0-6.5 4.75-11.25t 11.25-4.75l 72,0 q 6.5,0 11.25,4.75t 4.75,11.25zM 386.25,149.25q 13.75-15.25 13.75-37.25q-0.25-19.5 -14.375-33.75 t-33.625-14.25l-69.25,0 q 1-3.5 2-6t 2.75-5.5t 2.5-4.5q 4.5-9.25 6.75-14.25t 4.75-14.625t 2.5-19.125q0-6 -0.125-9.75t-1.25-11.25t-3-12.5t-6-11.25t-10-10.125t-15-6.5t-20.625-2.625q-6.5,0 -11.25,4.75q-5,5 -8.5,12.5t-4.875,13t-3.125,15.25q-2.25,10.5 -3.375,15.125t-4.375,12.125t-7.75,12q-8.25,8.25 -25.25,30q-12.25,16 -25.25,30.25 t-19,14.75q-6.25,0.5 -10.75,5.125t-4.5,10.875l0,160.25 q0,6.5 4.75,11.125t 11.25,4.875q 8.75,0.25 39.5,11q 19.25,6.5 30.125,9.875t 30.375,7.25t 36,3.875l 4.25,0 l 19,0 l 9,0 q 33.25-0.5 49.25-19.5q 14.5-17.25 12.25-45.25q 9.75-9.25 13.5-23.5q 4.25-15.25 0-29.25q 11.5-15.25 10.75-34.25q0-8 -3.75-19z" horiz-adv-x="416"  />
<glyph unicode="&#xe040;" d="M 420-64l-140,0 q-11.813,0 -19.906,8.094t-8.094,19.906l0,140 q0,11.813 8.094,19.906t 19.906,8.094l 140,0 q 11.375,0 19.688-8.094t 8.313-19.906l0-140 q0-11.813 -8.313-19.906t-19.688-8.094zM 392,62q0,5.688 -4.156,9.844t-9.844,4.156l-56,0 q-5.688,0 -9.844-4.156t-4.156-9.844l0-56 q0-5.688 4.156-9.844t 9.844-4.156l 56,0 q 5.688,0 9.844,4.156t 4.156,9.844
l0,56 zM 420,188l-140,0 q-11.813,0 -19.906,8.313t-8.094,19.688l0,140 q0,11.813 8.094,19.906t 19.906,8.094l 140,0 q 11.375,0 19.688-8.094t 8.313-19.906l0-140 q0-11.375 -8.313-19.688t-19.688-8.313zM 392,314q0,5.688 -4.156,9.844t-9.844,4.156l-56,0 q-5.688,0 -9.844-4.156t-4.156-9.844l0-56 q0-5.688 4.156-9.844t 9.844-4.156l 56,0 q 5.688,0 9.844,4.156t 4.156,9.844l0,56 
zM 168-64l-140,0 q-11.375,0 -19.688,8.094t-8.313,19.906l0,140 q0,11.813 8.313,19.906t 19.688,8.094l 140,0 q 11.813,0 19.906-8.094t 8.094-19.906l0-140 q0-11.813 -8.313-19.906t-19.688-8.094zM 140,62q0,5.688 -4.156,9.844t-9.844,4.156l-56,0 q-5.688,0 -9.844-4.156t-4.156-9.844l0-56 q0-5.688 4.156-9.844t 9.844-4.156l 56,0 q 5.688,0 9.844,4.156t 4.156,9.844l0,56 z
M 168,188l-140,0 q-11.375,0 -19.688,8.313t-8.313,19.688l0,140 q0,11.813 8.313,19.906t 19.688,8.094l 140,0 q 11.813,0 19.906-8.094t 8.094-19.906l0-140 q0-11.375 -8.313-19.688t-19.688-8.313zM 140,314q0,5.688 -4.156,9.844t-9.844,4.156l-56,0 q-5.688,0 -9.844-4.156t-4.156-9.844l0-56 q0-5.688 4.156-9.844t 9.844-4.156l 56,0 q 5.688,0 9.844,4.156t 4.156,9.844l0,56 z"  />
<glyph unicode="&#xe041;" d="M 192,128l0-96 q0-13 -9.5-22.5t-22.5-9.5l-128,0 q-13,0 -22.5,9.5t-9.5,22.5l0,96 q0,13 9.5,22.5t 22.5,9.5l 128,0 q 13,0 22.5-9.5t 9.5-22.5zM 192,320l0-96 q0-13 -9.5-22.5t-22.5-9.5l-128,0 q-13,0 -22.5,9.5t-9.5,22.5l0,96 q0,13 9.5,22.5t 22.5,9.5l 128,0 q 13,0 22.5-9.5t 9.5-22.5zM 416,128l0-96 q0-13 -9.5-22.5t-22.5-9.5 l-128,0 q-13,0 -22.5,9.5t-9.5,22.5l0,96 q0,13 9.5,22.5t 22.5,9.5l 128,0 q 13,0 22.5-9.5t 9.5-22.5zM 416,320l0-96 q0-13 -9.5-22.5t-22.5-9.5l-128,0 q-13,0 -22.5,9.5t-9.5,22.5l0,96 q0,13 9.5,22.5t 22.5,9.5l 128,0 q 13,0 22.5-9.5t 9.5-22.5z" horiz-adv-x="416"  />
<glyph unicode="&#xe042;" d="M 42,328l0-350 l 350,0 L 392,328 L 42,328 z M 154-8L 56-8 L 56,314 l 98,0 L 154-8 z M 378-8L 168-8 L 168,314 l 210,0 L 378-8 z"  />
<glyph unicode="&#xe043;" d="M 42,328l0-350 l 350,0 L 392,328 L 42,328 z M 266-8L 56-8 L 56,314 l 210,0 L 266-8 z M 378-8l-98,0 L 280,314 l 98,0 L 378-8 z"  />
<glyph unicode="&#xe044;" d="M 42,328l0-350 l 350,0 L 392,328 L 42,328 z M 210-8L 56-8 L 56,314 l 154,0 L 210-8 z M 378-8L 224-8 L 224,314 l 154,0 L 378-8 z"  />
<glyph unicode="&#xe045;" d="M 42,328l0-350 l 350,0 L 392,328 L 42,328 z M 154-8L 56-8 L 56,314 l 98,0 L 154-8 z M 266-8l-98,0 L 168,314 l 98,0 L 266-8 z M 378-8l-98,0 L 280,314 l 98,0 L 378-8 z"  />
<glyph unicode="&#xe046;" d="M 42,328l0-350 l 350,0 L 392,328 L 42,328 z M 378-8L 56-8 l0,98 l 322,0 L 378-8 z M 378,104L 56,104 l0,98 l 322,0 L 378,104 z M 378,216L 56,216 L 56,314 l 322,0 L 378,216 z"  />
<glyph unicode="&#xe047;" d="M 42,328l0-350 l 350,0 L 392,328 L 42,328 z M 210-8L 56-8 L 56,146 l 154,0 L 210-8 z M 210,160L 56,160 L 56,314 l 154,0 L 210,160 z M 378-8L 224-8 L 224,146 l 154,0 L 378-8 z
			 M 378,160L 224,160 L 224,314 l 154,0 L 378,160 z"  />
<glyph unicode="&#xe048;" d="M 42,328l0-350 l 350,0 L 392,328 L 42,328 z M 154-8L 56-8 l0,98 l 98,0 L 154-8 z M 154,104L 56,104 l0,98 l 98,0 L 154,104 z M 154,216L 56,216 L 56,314 l 98,0 L 154,216 z M 266-8
			l-98,0 l0,98 l 98,0 L 266-8 z M 266,104l-98,0 l0,98 l 98,0 L 266,104 z M 266,216l-98,0 L 168,314 l 98,0 L 266,216 z M 378-8l-98,0 l0,98 l 98,0 L 378-8 z M 378,104l-98,0 l0,98 l 98,0 L 378,104 z M 378,216l-98,0 L 280,314 l 98,0 L 378,216 z"  />
<glyph unicode="&#xe049;" d="M 42,328l0-350 l 350,0 L 392,328 L 42,328 z M 378-8L 56-8 L 56,230 l 322,0 L 378-8 z M 378,244L 56,244 L 56,314 l 322,0 L 378,244 z"  />
<glyph unicode="&#xe04a;" d="M 42,328l0-350 l 350,0 L 392,328 L 42,328 z M 154-8L 56-8 L 56,230 l 98,0 L 154-8 z M 378-8L 168-8 L 168,230 l 210,0 L 378-8 z M 378,244L 56,244 L 56,314 l 322,0 L 378,244 z"  />
<glyph unicode="&#xe04b;" d="M 42,328l0-350 l 350,0 L 392,328 L 42,328 z M 266-8L 56-8 L 56,230 l 210,0 L 266-8 z M 378-8l-98,0 L 280,230 l 98,0 L 378-8 z M 378,244L 56,244 L 56,314 l 322,0 L 378,244 z"  />
<glyph unicode="&#xe04c;" d="M 42,328l0-350 l 350,0 L 392,328 L 42,328 z M 154-8L 56-8 L 56,314 l 98,0 L 154-8 z M 378-8L 168-8 L 168,146 l 210,0 L 378-8 z M 378,160L 168,160 L 168,314 l 210,0 L 378,160 z"  />
<glyph unicode="&#xe04d;" d="M 42,328l0-350 l 350,0 L 392,328 L 42,328 z M 154-8L 56-8 L 56,230 l 98,0 L 154-8 z M 378-8L 168-8 l0,112 l 210,0 L 378-8 z M 378,118L 168,118 l0,112 l 210,0 L 378,118 z
			 M 378,244L 56,244 L 56,314 l 322,0 L 378,244 z"  />
<glyph unicode="&#xe04e;" d="M 42,328l0-350 l 350,0 L 392,328 L 42,328 z M 210-8L 56-8 L 56,230 l 154,0 L 210-8 z M 378-8L 224-8 L 224,230 l 154,0 L 378-8 z M 378,244L 56,244 L 56,314 l 322,0 L 378,244 z"  />
<glyph unicode="&#xe04f;" d="M 42,328l0-350 l 350,0 L 392,328 L 42,328 z M 111.132-8L 56-8 L 56,230 l 55.132,0 L 111.132-8 z M 308-8L 126-8 L 126,230 l 182,0 L 308-8 z M 378-8l-56,0 L 322,230 l 56,0 L 378-8 
			z M 378,244L 56,244 L 56,314 l 322,0 L 378,244 z"  />
<glyph unicode="&#xe050;" d="M 212-40q0,4 -4,4q-14.75,0 -25.375,10.625t-10.625,25.375q0,4 -4,4t-4-4q0-18.25 12.875-31.125t 31.125-12.875q 4,0 4,4zM 416,32q0-13 -9.5-22.5t-22.5-9.5l-112,0 q0-26.5 -18.75-45.25t-45.25-18.75t-45.25,18.75t-18.75,45.25l-112,0 q-13,0 -22.5,9.5t-9.5,22.5q 47.5,40.25 71.75,99.375t 24.25,124.625 q0,41.25 24,65.5t 66,29.25q-2,4.5 -2,9.25q0,10 7,17t 17,7t 17-7t 7-17q0-4.75 -2-9.25q 42-5 66-29.25t 24-65.5q0-65.5 24.25-124.625t 71.75-99.375z" horiz-adv-x="416"  />
<glyph unicode="&#xe051;" d="M 224-32q-6.5,0 -11,4.5l-156,150.5q-2.5,2 -6.875,6.5t-13.875,16.375t-17,24.375t-13.375,30.25t-5.875,34.5q0,55 31.75,86t 87.75,31q 15.5,0 31.625-5.375t 30-14.5t 23.875-17.125t 19-17q 9,9 19,17t 23.875,17.125t 30,14.5t 31.625,5.375q 56,0 87.75-31t 31.75-86q0-55.25 -57.25-112.5l-155.75-150 q-4.5-4.5 -11-4.5z"  />
<glyph unicode="&#xe052;" d="M0,115.071c0-15.146, 6.669-28.648, 17.739-37.779L 17.739,152.906 C 6.669,143.776,0,130.217,0,115.071
		 M 36.384,162.761l0-95.418 c 4.661-1.23, 9.323-1.886, 14.136-1.886l 5.092,0 L 55.612,164.495 c-1.748,0.164-3.479,0.22-5.119,0.22
		c-4.834,0-9.447-0.655-14.109-1.913 M 78.144,156.65c-1.287,0.792-2.722,1.559-3.887,2.242l0-93.434 l 18.645,0 L 92.902,190.464 
		C 85.327,180.681, 80.276,169.168, 78.144,156.65 M 111.547,208.208l0-142.75 l 18.645,0 L 130.192,217.311 
		c-6.409-2.296-12.819-5.441-18.645-9.295 M 149.42,221.027l0-155.568 l 18.645,0 L 168.065,220.563 c-4.079,0.602-7.738,0.874-11.783,0.874
		c-2.352,0-4.532-0.108-6.862-0.272 M 197.030,210.149c-6.151,3.662-12.651,6.506-19.643,8.447l0-153.137 l 27.968,0 L 205.355,221.466 
		C 202.441,217.91, 199.545,214.139, 197.030,210.149 M 215.26,230.932l0-165.474 l 178.293,0 l0,0.215 
		C 430.842,68.082, 448,91.37, 448,119.827c0,30.017-22.771,54.346-53.339,54.346c-7.843,0-14.258-1.64-21.117-4.538
		C 368.655,217.311, 328.342,254.542, 278.534,254.542c-24.386,0-46.377-8.911-63.274-23.646"  />
<glyph unicode="&#xe053;" d="M 377.272,334.468c-75.068-1.484-162.036-14.49-237.118-39.032c-0.042,0.49, 0.28-222.992, 0.28-222.992
	c-13.552,3.066-28.868,1.288-44.954-6.048c-29.848-13.566-46.13-40.992-36.358-61.25c 9.772-20.286, 41.888-25.732, 71.736-12.138
	c 27.286,14.63, 36.064,27.86, 36.96,46.998l 0.672,193.648c 59.164,17.402, 121.73,27.72, 180.922,30.912l0-173.124 c-13.706,3.36-31.864,1.666-48.314-5.796
	c-29.848-13.594-46.13-41.020-36.358-61.278c 9.772-20.286, 41.888-25.704, 71.75-12.138c 21.224,9.646, 38.206,26.306, 41.202,42.406
	C 377.706,54.65, 376.978,334.846, 377.272,334.468z"  />
<glyph unicode="&#xe054;" d="M 336-8l0,28 l-0.35,0 C 335.776,22.324, 336,24.634, 336,27L 336,146 l0,35 
	C 336,246.716, 282.716,300, 217,300S 98,246.716, 98,181L 98,146 l0-119 c0-2.366, 0.224-4.676, 0.35-7L 98,20 l0-28 c0,0-70,1.176-70,77c0,43.008, 22.498,61.978, 42,70.35
	L 70,181 C 70,262.186, 135.814,328, 217,328S 364,262.186, 364,181l0-41.65 c 19.502-8.386, 42-27.342, 42-70.35C 406-6.824, 336-8, 336-8z M 126-8L 112-8 L 112,146 l 14,0 L 126-8 z M 322-8
	l-14,0 L 308,146 l 14,0 L 322-8 z"  />
<glyph unicode="&#xe055;" d="M 181.25,244.25l-42.5-112.5q 18.25-0.25 38.375-0.5t 29.75-0.375t 13.125-0.125l 7.25,0.5q-8,23.75 -23,60.25q-13.25,33 -23,52.75zM 5.25-32l-5.25,0 l 0.5,19.75q 5.5,1.75 20,4.5q 22.25,4 27.5,7.75q 5,4 12,17l 59.25,154l 70,181l 18.75,0 l 13.25,0 l 2.75-5.25l 51.25-120q 25.75-60.5 31-74.25q 9.75-25.5 24-58.75q 6.5-14.5 16.25-41q 6-16.75 16.25-37.25 q 5.5-12.25 8.75-14.25q 5.5-4.75 17.25-5.75q 11.75-1.5 25.75-6.75q 1.5-9.75 1.5-14.25q0-3.5 -0.25-6.5q-20,0 -48,2q-23.25,2 -47.25,2q-19.75,0 -33.75-0.5l-50-2.75l-14.5-0.5q0,11.25 1,19.5l 32.75,7q 14,3.25 17,5.75q 3,3 3,6.75t-1.5,8l-11.75,28.5l-23,57l-112.5,0.5q-7.25-16.25 -26-68.5q-5.75-16 -5.75-21q0-7.75 4.25-10.75 q 6.5-5.25 25.75-8q 0.75,0 3.375-0.5t 7.5-1.25t 10.125-1.5q 0.25-7 0.25-14.5q0-4.25 -0.5-6.75q-16.5,0 -87.25,5l-12-2q-20.25-3.5 -41.75-3.5z" horiz-adv-x="416"  />
<glyph unicode="&#xe056;" d="M 174.72,339.424L 300.16,339.424L 300.16,267.744L 174.72,267.744zM 156.8,249.376L 156.8,338.976L 0,338.976L 0,249.376L 0-19.424L 448-19.424L 448,249.376 	zM 318.080,339.424L 443.52,339.424L 443.52,267.744L 318.080,267.744z"  />
<glyph unicode="&#xe057;" d="M 448,191.36c0-4.949-4.011-8.96-8.96-8.96L 8.96,182.4 c-4.949,0-8.96,4.012-8.96,8.96L0,375.040 C0,379.989, 4.011,384, 8.96,384l 430.080,0 c 4.949,0, 8.96-4.011, 8.96-8.96L 448,191.36 zM 448,65.778c0-4.948-4.011-8.96-8.96-8.96L 8.96,56.818 c-4.949,0-8.96,4.012-8.96,8.96L0,128.499 c0,4.948, 4.011,8.96, 8.96,8.96l 430.080,0 
	c 4.949,0, 8.96-4.012, 8.96-8.96L 448,65.778 zM 448-55.040c0-4.948-4.011-8.96-8.96-8.96L 8.96-64 c-4.949,0-8.96,4.012-8.96,8.96L0,7.68 c0,4.948, 4.011,8.96, 8.96,8.96l 430.080,0 
	c 4.949,0, 8.96-4.012, 8.96-8.96L 448-55.040 z"  />
<glyph unicode="&#xe058;" d="M 148.25,160q-40.5-1.25 -66.25-32l-33.5,0 q-20.5,0 -34.5,10.125t-14,29.625q0,88.25 31,88.25q 1.5,0 10.875-5.25t 24.375-10.625t 29.75-5.375q 16.75,0 33.25,5.75q-1.25-9.25 -1.25-16.5q0-34.75 20.25-64zM 416,0.75q0-30 -18.25-47.375t-48.5-17.375l-218.5,0 q-30.25,0 -48.5,17.375t-18.25,47.375q0,13.25 0.875,25.875t 3.5,27.25t 6.625,27.125 t 10.75,24.375t 15.5,20.25t 21.375,13.375t 27.875,5q 2.5,0 10.75-5.375t 18.25-12t 26.75-12t 33.75-5.375t 33.75,5.375t 26.75,12t 18.25,12t 10.75,5.375q 15.25,0 27.875-5t 21.375-13.375t 15.5-20.25t 10.75-24.375t 6.625-27.125t 3.5-27.25t 0.875-25.875zM 160,320q0-26.5 -18.75-45.25t-45.25-18.75t-45.25,18.75t-18.75,45.25t 18.75,45.25t 45.25,18.75t 45.25-18.75 t 18.75-45.25zM 336,224q0-39.75 -28.125-67.875t-67.875-28.125t-67.875,28.125t-28.125,67.875t 28.125,67.875t 67.875,28.125t 67.875-28.125t 28.125-67.875zM 480,167.75q0-19.5 -14-29.625t-34.5-10.125l-33.5,0 q-25.75,30.75 -66.25,32q 20.25,29.25 20.25,64q0,7.25 -1.25,16.5q 16.5-5.75 33.25-5.75q 14.75,0 29.75,5.375t 24.375,10.625 t 10.875,5.25q 31,0 31-88.25zM 448,320q0-26.5 -18.75-45.25t-45.25-18.75t-45.25,18.75t-18.75,45.25t 18.75,45.25t 45.25,18.75t 45.25-18.75t 18.75-45.25z" horiz-adv-x="480"  />
<glyph unicode="&#xe059;" d="M 416,109.5q0-20.25 -11.125-33.75t-30.875-13.5q-10.25,0 -19.375,4.375t-14.75,9.5t-14.125,9.5t-17.75,4.375q-27.5,0 -27.5-31q0-9.75 4-28.75t 3.75-28.75l0-1.25 q-5.5,0 -8.25-0.25q-8.5-0.75 -24.375-2.875t-28.875-3.375t-24.5-1.25q-15.25,0 -25.75,6.625t-10.5,20.875q0,9.25 4.375,17.75t 9.5,14.125t 9.5,14.75t 4.375,19.375q0,19.75 -13.5,30.875 t-33.75,11.125q-21,0 -35.75-11.375t-14.75-31.875q0-10.75 3.75-20.75t 8.375-16.125t 8.375-13.25t 3.75-12.625q0-11.25 -11.5-22.25q-9.25-8.75 -29.25-8.75q-23.75,0 -61.25,6q-2.25,0.5 -6.875,1t-6.875,1l-3.25,0.5q-0.25,0 -0.75,0.25q-0.5,0 -0.5,0.25l0,256 q 0.5-0.25 4.375-0.875t 8.5-1.25t 5.375-0.875q 37.5-6 61.25-6q 20,0 29.25,8.75q 11.5,11 11.5,22.25 q0,5.5 -3.75,12.625t-8.375,13.25t-8.375,16.125t-3.75,20.75q0,20.5 14.75,31.875t 36,11.375q 20,0 33.5-11.125t 13.5-30.875q0-10.25 -4.375-19.375t-9.5-14.75t-9.5-14.125t-4.375-17.75q0-14.25 10.5-20.875t 25.75-6.625q 16,0 45,3.75t 40.75,4.25l0-0.5 q-0.25-0.5 -0.875-4.375t-1.25-8.5t-0.875-5.375q-6-37.5 -6-61.25q0-20 8.75-29.25 q 11-11.5 22.25-11.5q 5.5,0 12.625,3.75t 13.25,8.375t 16.125,8.375t 20.75,3.75q 20.5,0 31.875-14.75t 11.375-35.75z" horiz-adv-x="416"  />
<glyph unicode="&#xe05a;" d="M 448,48l0-32 q0-6.5 -4.75-11.25t-11.25-4.75l-416,0 q-6.5,0 -11.25,4.75t-4.75,11.25l0,32 q0,6.5 4.75,11.25t 11.25,4.75l 416,0 q 6.5,0 11.25-4.75t 4.75-11.25zM 448,144l0-32 q0-6.5 -4.75-11.25t-11.25-4.75l-416,0 q-6.5,0 -11.25,4.75t-4.75,11.25l0,32 q0,6.5 4.75,11.25t 11.25,4.75l 416,0 q 6.5,0 11.25-4.75t 4.75-11.25zM 448,240l0-32 q0-6.5 -4.75-11.25 t-11.25-4.75l-416,0 q-6.5,0 -11.25,4.75t-4.75,11.25l0,32 q0,6.5 4.75,11.25t 11.25,4.75l 416,0 q 6.5,0 11.25-4.75t 4.75-11.25zM 448,336l0-32 q0-6.5 -4.75-11.25t-11.25-4.75l-416,0 q-6.5,0 -11.25,4.75t-4.75,11.25l0,32 q0,6.5 4.75,11.25t 11.25,4.75l 416,0 q 6.5,0 11.25-4.75t 4.75-11.25z"  />
<glyph unicode="&#xe05b;" d="M 96,200l0-48 q0-10 -7-17t-17-7l-48,0 q-10,0 -17,7t-7,17l0,48 q0,10 7,17t 17,7l 48,0 q 10,0 17-7t 7-17zM 224,200l0-48 q0-10 -7-17t-17-7l-48,0 q-10,0 -17,7t-7,17l0,48 q0,10 7,17t 17,7l 48,0 q 10,0 17-7t 7-17zM 352,200l0-48 q0-10 -7-17t-17-7l-48,0  q-10,0 -17,7t-7,17l0,48 q0,10 7,17t 17,7l 48,0 q 10,0 17-7t 7-17z" horiz-adv-x="352"  />
<glyph unicode="&#xe05c;" d="M 96,72l0-48 q0-10 -7-17t-17-7l-48,0 q-10,0 -17,7t-7,17l0,48 q0,10 7,17t 17,7l 48,0 q 10,0 17-7t 7-17zM 96,200l0-48 q0-10 -7-17t-17-7l-48,0 q-10,0 -17,7t-7,17l0,48 q0,10 7,17t 17,7l 48,0 q 10,0 17-7t 7-17zM 96,328l0-48 q0-10 -7-17t-17-7l-48,0  q-10,0 -17,7t-7,17l0,48 q0,10 7,17t 17,7l 48,0 q 10,0 17-7t 7-17z" horiz-adv-x="96"  />
<glyph unicode="&#xe05d;" d="M 168,300L 224,300L 224,272L 168,272zM 252,300L 308,300L 308,272L 252,272zM 392,300 L 392,188 L 308,188 L 308,216 L 364,216 L 364,272 L 336,272 L 336,300 ZM 140,216L 196,216L 196,188L 140,188zM 224,216L 280,216L 280,188L 224,188zM 84,272 L 84,216 L 112,216 L 112,188 L 56,188 L 56,300 L 140,300 L 140,272 ZM 168,132L 224,132L 224,104L 168,104zM 252,132L 308,132L 308,104L 252,104zM 392,132 L 392,20 L 308,20 L 308,48 L 364,48 L 364,104 L 336,104 L 336,132 ZM 140,48L 196,48L 196,20L 140,20zM 224,48L 280,48L 280,20L 224,20zM 84,104 L 84,48 L 112,48 L 112,20 L 56,20 L 56,132 L 140,132 L 140,104 ZM 420,356 L 28,356 L 28-36 L 420-36 L 420,356 Z M 448,384 L 448,384 L 448-64 L 0-64 L 0,384 L 448,384 Z"  />
<glyph unicode="&#xe05e;" d="M 392-64l-168,0 q-23.188,0 -39.594,16.406t-16.406,39.594l0,336 q0,23.188 16.406,39.594t 39.594,16.406l 168,0 q 23.188,0 39.594-16.406t 16.406-39.594l0-336 q0-23.188 -16.406-39.594t-39.594-16.406zM 392,314q0,5.688 -4.156,9.844t-9.844,4.156l-140,0 q-5.688,0 -9.844-4.156t-4.156-9.844l0-308 q0-5.688 4.156-9.844t 9.844-4.156l 140,0 q 5.688,0 9.844,4.156
t 4.156,9.844l0,308 zM 84-64l-56,0 q-11.813,0 -19.906,8.313t-8.094,19.688l0,56 q0,11.813 8.094,19.906t 19.906,8.094l 56,0 q 11.375,0 19.688-8.094t 8.313-19.906l0-56 q0-11.375 -8.313-19.688t-19.688-8.313zM 84,104l-56,0 q-11.813,0 -19.906,8.094t-8.094,19.906l0,56 q0,11.813 8.094,19.906t 19.906,8.094l 56,0 q 11.375,0 19.688-8.094t 8.313-19.906l0-56 q0-11.375 -8.313-19.688
t-19.688-8.313zM 84,272l-56,0 q-11.813,0 -19.906,8.313t-8.094,19.688l0,56 q0,11.813 8.094,19.906t 19.906,8.094l 56,0 q 11.375,0 19.688-8.094t 8.313-19.906l0-56 q0-11.375 -8.313-19.688t-19.688-8.313z"  />
<glyph unicode="&#xe05f;" d="M 420-64l-56,0 q-11.813,0 -19.906,8.313t-8.094,19.688l0,56 q0,11.813 8.094,19.906t 19.906,8.094l 56,0 q 11.375,0 19.688-8.094t 8.313-19.906l0-56 q0-11.375 -8.313-19.688t-19.688-8.313zM 420,104l-56,0 q-11.813,0 -19.906,8.094t-8.094,19.906l0,56 q0,11.813 8.094,19.906t 19.906,8.094l 56,0 q 11.375,0 19.688-8.094t 8.313-19.906l0-56 q0-11.375 -8.313-19.688t-19.688-8.313z
M 420,272l-56,0 q-11.813,0 -19.906,8.313t-8.094,19.688l0,56 q0,11.813 8.094,19.906t 19.906,8.094l 56,0 q 11.375,0 19.688-8.094t 8.313-19.906l0-56 q0-11.375 -8.313-19.688t-19.688-8.313zM 224-64l-168,0 q-23.188,0 -39.594,16.406t-16.406,39.594l0,336 q0,23.188 16.406,39.594t 39.594,16.406l 168,0 q 23.188,0 39.594-16.406t 16.406-39.594l0-336 q0-23.188 -16.406-39.594
t-39.594-16.406zM 224,314q0,5.688 -4.156,9.844t-9.844,4.156l-140,0 q-5.688,0 -9.844-4.156t-4.156-9.844l0-308 q0-5.688 4.156-9.844t 9.844-4.156l 140,0 q 5.688,0 9.844,4.156t 4.156,9.844l0,308 z"  />
<glyph unicode="&#x20;" horiz-adv-x="224" />
</font>
</defs>
</svg>
